专注4K家庭影音, 服务千万家庭影音发烧友!

[待验证4K资源] 内战前4k Antebellum 2020 2160p-4k电影下载

碧池 发表于 2020-9-28 20:06:22 | 显示全部楼层
电影频道
电影封面:
片  名: 内战前4k
电影分类: 恐怖 剧情 悬疑 
国  家: 美国 
年  代: 2020年
分 辨 率: 4K(3840x2160)
电影格式: MKV|REMUX 
画质标准: HDR 
音质编码: 其他AAC 
电影声道: 5.1声道 
帧数/FPS: 23.976 FPS
电影语言: 英文原版 
资源大小: 2.7 GB
导  演: 杰拉德·布什 / 克里斯托弗·伦兹
豆瓣评分: 6.4 分
中文字幕: -
剧情简介: 备受推崇的知名女作家法朗妮卡原本过着成功人士的美好生活,然而一场精心设计的布局,却令她陷入极度可怖的境况……为求保命,她必须与时间竞赛,把握时机,拆解眼前满布谜雾的心寒诡秘。
颤·役·前(港) / 顫役轮回(台) / 内战前夕/内战前4k Antebellum 2020 2160p HDR 5.1 x265 10bit Phun Psyz-4k电影信息
  1. Video
  2. ID : 1
  3. Format : HEVC
  4. Format/Info : High Efficiency Video Coding
  5. Codec ID : V_MPEGH/ISO/HEVC
  6. Duration : 1 h 45 min
  7. Bit rate : 3 263 kb/s
  8. Width : 3 840 pixels
  9. Height : 1 608 pixels
  10. Display aspect ratio : 2.40:1
  11. Frame rate mode : Constant
  12. Frame rate : 23.976 (24000/1001) FPS
  13. Color space : YUV
  14. Chroma subsampling : 4:2:0
  15. Bit depth : 10 bits
  16. Bits/(Pixel*Frame) : 0.022
  17. Stream size : 2.42 GiB (89%)
  18. Writing library : x265 2.9:[Windows][GCC 7.1.0][64 bit] 10bit
  19. Color range : Full
  20. Color primaries : BT.2020
  21. Transfer characteristics : PQ
  22. Matrix coefficients : BT.2020 non-constant

  23. Audio
  24. ID : 2
  25. Format : AC-3
  26. Format/Info : Audio Coding 3
  27. Commercial name : Dolby Digital
  28. Codec ID : A_AC3
  29. Duration : 1 h 45 min
  30. Bit rate mode : Constant
  31. Bit rate : 320 kb/s
  32. Channel(s) : 6 channels
  33. Channel layout : L R C LFE Ls Rs
  34. Sampling rate : 48.0 kHz
  35. Frame rate : 31.250 FPS (1536 SPF)
  36. Compression mode : Lossy
  37. Delay relative to video : -5 ms
  38. Stream size : 243 MiB (9%)
  39. Title : Surround
  40. Language : English
复制代码

颤·役·前(港) / 顫役轮回(台) / 内战前夕/内战前4k Antebellum 2020 2160p HDR 5.1 x265 10bit Phun Psyz-4k电影下载

内战前4k Antebellum 2020 2160p HDR 5.1 x265 10bit Phun Psyz【2.7 GB】
内战前4k下载.txt
(106 Bytes)

评分

参与人数 1H币 -2 收起 理由
peiyong6688 -2 2.7G ?! 还5.1 ,论坛没有人管理的啊!4K .

查看全部评分

回复

使用道具 举报

发烧友评论13

倒序浏览
michaelshaojie 发表于 2020-10-9 18:39:02 | 显示全部楼层
谢谢分享,有你更精彩,还有有好4K
回复 支持 1 反对 0

使用道具 举报

lywzj238 发表于 2020-10-8 21:05:48 | 显示全部楼层
谢谢分享好电影
回复 支持 反对

使用道具 举报

XIXI0521cy 发表于 2020-10-6 11:13:02 | 显示全部楼层
文件太小,不可能是4K吧
回复 支持 反对

使用道具 举报

qq260437762 发表于 2020-10-4 15:03:00 | 显示全部楼层
文件太小,不可能是4K吧
回复 支持 反对

使用道具 举报

唯一的唯一 发表于 2020-10-2 10:43:33 | 显示全部楼层
请问一下这个要用什么软件下载迅雷吗?
回复 支持 反对

使用道具 举报

hiero99 发表于 2020-10-2 10:33:08 | 显示全部楼层

thanks for sharing
回复 支持 反对

使用道具 举报

chs216 发表于 2020-10-1 11:47:25 | 显示全部楼层
4K现在才2.7G吗?谢谢分享
回复 支持 反对

使用道具 举报

wolf001 发表于 2020-10-1 09:17:01 | 显示全部楼层
thanks for sharing
回复 支持 反对

使用道具 举报

yin168 发表于 2020-9-30 19:19:59 | 显示全部楼层
感谢分享·
回复 支持 反对

使用道具 举报

18520199909 发表于 2020-9-28 20:23:15 Hao4K手机版 | 显示全部楼层
下载了谢谢分享,希望资源能多一点
回复 支持 反对

使用道具 举报

您需要登录后才可以回帖 登录 | 立即注册

本版积分规则


0关注

20粉丝

68帖子

热门图文主题
热门主题
社区广告

在线客服

在线客服

服务时间 9:00—18:00

返回顶部

关注微信公众号第一时间推送精彩

官方微信

手机访问

Hao4K影音

专注4k家庭影音,提供家庭影音社区,家庭影音器材库,影音问答平台,影音商城,服务千万家庭影音用户。

本站内容部分由用户自主分享和转载自互联网,转载目的在于传递更多信息,并不代表本网赞同其观点和对其真实性负责。

如有侵权、违反国家法律政策行为,请联系我们,我们会第一时间及时清除和处理!

举报反馈邮箱:admin@hao4k.cn

Copyright  2019-2020  Hao4K影音粤公网安备 44030302001429号    ( 粤ICP备18155646号-1 )|网站地图