专注4K家庭影音, 服务千万家庭影音发烧友!

[日韩剧] 星际牛仔4k Cowboy Bebop 1998 Season 01 S01 Dual Audio 2160p-4k电视剧下载

碧池 发表于 2020-9-29 09:47:55 | 显示全部楼层
电视剧频道
电视剧封面:
电视剧名: 星际牛仔4k
年  代: 90年代  
国  家: 其他
类  别: 动作 科幻 犯罪 剧情 动画 西部 
语  言: 英语
字  幕: 英文原版
上映日期: 1998-04-03
文件格式: mkv    
视频效果: 4K(3840x2160)    
资源大小: 20.7 GB
片  长: 25 分钟
导  演: 渡边信一郎 / 森邦宏 / 武井良幸 / 佐藤育郎 / 山田弘和 / 渡边哲哉
剧情简介:  2071年,随着超光速航行技术的实现,人类得以在太阳系范围内方便的移动,但是由于设计上的失误,这种技术引发了月球的爆炸,无数的月球碎片被吸引向地球,造成了空前绝后的大灾难。存活下来的人类逃离地球,并开始在太阳系各地建立家园。由于这次灾难,国家政府等权利机构都极为不稳定、治安问题也成为了一个难题。有些组织开始允许个人抓捕通缉的罪犯并换取奖金,这就是“赏金猎人”。史派克和杰特是驾驶飞船BEBOP号在宇宙中以捉拿逃犯获取奖金为生的赏金猎人。两人在星际间的旅程中,结识了身负巨债、嗜财如命的美女菲和电脑神童艾德,并收养了拥有高智商的数据狗爱因。从此,四人一狗游荡在广阔之宇宙之中,在自己与他人的生活中经历著种种悲欢离合,也寻找著各自的过去。
赏金猎人 / 宇宙牛仔 / Kaubôi bibappu: Cowboy Bebop / Cowboy Bebop/星际牛仔4k Cowboy Bebop 1998 Season 01 S01 Dual Audio 2160p BluRay x265 HEVC AI 10bit AAC 5.1-4k电视剧信息
  1. Video
  2. ID                                       : 7
  3. Format                                   : HEVC
  4. Format/Info                              : High Efficiency Video Coding
  5. Codec ID                                 : V_MPEGH/ISO/HEVC
  6. Duration                                 : 24 min 42 s
  7. Bit rate                                 : 4 001 kb/s
  8. Width                                    : 2 880 pixels
  9. Height                                   : 2 160 pixels
  10. Display aspect ratio                     : 4:3
  11. Frame rate mode                          : Constant
  12. Frame rate                               : 23.976 (24000/1001) FPS
  13. Color space                              : YUV
  14. Chroma subsampling                       : 4:2:0
  15. Bit depth                                : 10 bits
  16. Bits/(Pixel*Frame)                       : 0.027
  17. Stream size                              : 707 MiB (91%)
  18. Writing library                          : x265 3.2+9-971180b100f8:[Windows][MSVC 1923][64 bit] 10bit
  19. Encoding settings                        : cpuid=1111039 / frame-threads=3 / numa-pools=12 / wpp / no-pmode / no-pme / no-psnr / ssim / log-level=2 / input-csp=1 / input-res=2880x2160 / interlace=0 / total-frames=35536 / level-idc=0 / high-tier=1 / uhd-bd=0 / ref=4 / no-allow-non-conformance / no-repeat-headers / annexb / no-aud / no-hrd / info / hash=0 / no-temporal-layers / open-gop / min-keyint=23 / keyint=250 / gop-lookahead=0 / bframes=8 / b-adapt=2 / b-pyramid / bframe-bias=40 / rc-lookahead=80 / lookahead-slices=4 / scenecut=40 / radl=0 / no-splice / no-intra-refresh / ctu=64 / min-cu-size=8 / no-rect / no-amp / max-tu-size=32 / tu-inter-depth=1 / tu-intra-depth=1 / limit-tu=0 / rdoq-level=2 / dynamic-rd=0.00 / ssim-rd / signhide / no-tskip / nr-intra=0 / nr-inter=0 / constrained-intra / strong-intra-smoothing / max-merge=3 / limit-refs=3 / limit-modes / me=3 / subme=3 / merange=57 / temporal-mvp / no-frame-dup / no-hme / weightp / no-weightb / no-analyze-src-pics / deblock=4:4 / sao / no-sao-non-deblock / rd=4 / selective-sao=4 / early-skip / rskip / no-fast-intra / no-tskip-fast / no-cu-lossless / no-b-intra / splitrd-skip / rdpenalty=0 / psy-rd=2.45 / psy-rdoq=1.50 / no-rd-refine / no-lossless / cbqpoffs=0 / crqpoffs=0 / rc=abr / bitrate=4000 / qcomp=0.60 / qpstep=4 / stats-write=0 / stats-read=2 / cplxblur=20.0 / qblur=0.5 / ipratio=1.40 / pbratio=1.30 / aq-mode=3 / aq-strength=0.40 / cutree / zone-count=0 / no-strict-cbr / qg-size=32 / no-rc-grain / qpmax=69 / qpmin=0 / no-const-vbv / sar=0 / overscan=0 / videoformat=5 / range=0 / colorprim=2 / transfer=2 / colormatrix=2 / chromaloc=0 / display-window=0 / cll=0,0 / min-luma=0 / max-luma=1023 / log2-max-poc-lsb=8 / vui-timing-info / vui-hrd-info / slices=1 / no-opt-qp-pps / no-opt-ref-list-length-pps / multi-pass-opt-rps / scenecut-bias=0.05 / no-opt-cu-delta-qp / no-aq-motion / no-hdr / no-hdr-opt / no-dhdr10-opt / no-idr-recovery-sei / analysis-load / analysis-reuse-level=10 / scale-factor=0 / refine-intra=0 / refine-inter=0 / refine-mv=1 / refine-ctu-distortion=0 / limit-sao / ctu-info=0 / no-lowpass-dct / refine-analysis-type=0 / copy-pic=1 / max-ausize-factor=1.0 / no-dynamic-refine / no-single-sei / no-hevc-aq / no-svt / no-field / qp-adaptation-range=1.00
  20. Default                                  : Yes
  21. Forced                                   : No

  22. Audio #1
  23. ID                                       : 1
  24. Format                                   : AAC
  25. Format/Info                              : Advanced Audio Codec
  26. Format profile                           : HE-AAC / LC
  27. Codec ID                                 : A_AAC
  28. Duration                                 : 24 min 42 s
  29. Bit rate                                 : 171 kb/s
  30. Channel(s)                               : 6 channels
  31. Channel positions                        : Front: L C R, Side: L R, LFE
  32. Sampling rate                            : 48.0 kHz / 24.0 kHz
  33. Frame rate                               : 23.438 FPS (1024 spf)
  34. Compression mode                         : Lossy
  35. Delay relative to video                  : 31 ms
  36. Stream size                              : 30.3 MiB (4%)
  37. Title                                    : Surround 5.1
  38. Language                                 : English
  39. Default                                  : Yes
  40. Forced                                   : No

  41. Audio #2
  42. ID                                       : 2
  43. Format                                   : AAC
  44. Format/Info                              : Advanced Audio Codec
  45. Format profile                           : HE-AAC / LC
  46. Codec ID                                 : A_AAC
  47. Duration                                 : 24 min 42 s
  48. Bit rate                                 : 166 kb/s
  49. Channel(s)                               : 6 channels
  50. Channel positions                        : Front: L C R, Side: L R, LFE
  51. Sampling rate                            : 48.0 kHz / 24.0 kHz
  52. Frame rate                               : 23.438 FPS (1024 spf)
  53. Compression mode                         : Lossy
  54. Delay relative to video                  : 31 ms
  55. Stream size                              : 29.2 MiB (4%)
  56. Language                                 : Japanese
  57. Default                                  : No
  58. Forced                                   : No

  59. Audio #3
  60. ID                                       : 3
  61. Format                                   : AAC
  62. Format/Info                              : Advanced Audio Codec
  63. Format profile                           : HE-AAC / LC
  64. Codec ID                                 : A_AAC
  65. Duration                                 : 24 min 42 s
  66. Bit rate                                 : 43.4 kb/s
  67. Channel(s)                               : 2 channels
  68. Channel positions                        : Front: L R
  69. Sampling rate                            : 48.0 kHz / 24.0 kHz
  70. Frame rate                               : 23.438 FPS (1024 spf)
  71. Compression mode                         : Lossy
  72. Delay relative to video                  : 31 ms
  73. Stream size                              : 7.66 MiB (1%)
  74. Language                                 : Japanese
  75. Default                                  : No
  76. Forced                                   : No

  77. Subtitle #1
  78. ID                                       : 4
  79. Format                                   : VobSub
  80. Muxing mode                              : zlib
  81. Codec ID                                 : S_VOBSUB
  82. Codec ID/Info                            : Picture based subtitle format used on DVDs
  83. Duration                                 : 21 min 32 s
  84. Bit rate                                 : 6 395 b/s
  85. Count of elements                        : 228
  86. Stream size                              : 1 009 KiB (0%)
  87. Language                                 : English
  88. Default                                  : No
  89. Forced                                   : No

  90. Subtitle #2
  91. ID                                       : 5
  92. Format                                   : VobSub
  93. Muxing mode                              : zlib
  94. Codec ID                                 : S_VOBSUB
  95. Codec ID/Info                            : Picture based subtitle format used on DVDs
  96. Duration                                 : 1 min 52 s
  97. Bit rate                                 : 3 342 b/s
  98. Count of elements                        : 11
  99. Stream size                              : 46.0 KiB (0%)
  100. Language                                 : English
  101. Default                                  : No
  102. Forced                                   : No

  103. Subtitle #3
  104. ID                                       : 6
  105. Format                                   : VobSub
  106. Muxing mode                              : zlib
  107. Codec ID                                 : S_VOBSUB
  108. Codec ID/Info                            : Picture based subtitle format used on DVDs
  109. Duration                                 : 21 min 51 s
  110. Bit rate                                 : 17.0 kb/s
  111. Count of elements                        : 442
  112. Stream size                              : 2.66 MiB (0%)
  113. Language                                 : Japanese
  114. Default                                  : No
  115. Forced                                   : No

  116. Menu
  117. 00:00:00.000                             : en:Chapter 01
  118. 00:00:47.756                             : en:Chapter 02
  119. 00:02:17.762                             : en:Chapter 03
  120. 00:12:22.241                             : en:Chapter 04
  121. 00:22:35.395                             : en:Chapter 05
  122. 00:24:11.032                             : en:Chapter 06
复制代码

赏金猎人 / 宇宙牛仔 / Kaubôi bibappu: Cowboy Bebop / Cowboy Bebop/星际牛仔4k Cowboy Bebop 1998 Season 01 S01 Dual Audio 2160p BluRay x265 HEVC AI 10bit AAC 5.1-4k电视剧下载
星际牛仔4k Cowboy Bebop 1998 Season 01 S01 Dual Audio 2160p BluRay x265 HEVC AI 10bit AAC 5.1【20.7 GB】
星际牛仔4k下载.txt
(109 Bytes)
回复

使用道具 举报

发烧友评论6

倒序浏览
dyj1113 发表于 2020-10-12 17:13:21 | 显示全部楼层
神作大爱啊
回复 支持 反对

使用道具 举报

fenrei 发表于 2020-10-7 17:30:25 | 显示全部楼层
这个4K资源很不错哦,我喜欢。赶紧试试我家4K电视
回复 支持 反对

使用道具 举报

bttuzi03 发表于 2020-10-3 17:35:44 | 显示全部楼层
谢谢大佬分享
回复 支持 反对

使用道具 举报

路仁 发表于 2020-10-1 15:31:28 | 显示全部楼层
超级喜欢 超级加倍

回复 支持 反对

使用道具 举报

杜鸿霖 发表于 2020-9-29 20:04:38 | 显示全部楼层
这个超级喜欢啊
回复 支持 反对

使用道具 举报

您需要登录后才可以回帖 登录 | 立即注册

本版积分规则

在线客服

在线客服

服务时间 9:00—18:00

返回顶部

关注微信公众号第一时间推送精彩

官方微信

手机访问

Hao4K影音

专注4k家庭影音,提供家庭影音社区,家庭影音器材库,影音问答平台,影音商城,服务千万家庭影音用户。

本站内容部分由用户自主分享和转载自互联网,转载目的在于传递更多信息,并不代表本网赞同其观点和对其真实性负责。

如有侵权、违反国家法律政策行为,请联系我们,我们会第一时间及时清除和处理!

举报反馈邮箱:admin@hao4k.cn

Copyright  2019-2020  Hao4K影音粤公网安备 44030302001429号    ( 粤ICP备18155646号-1 )|网站地图