专注4K家庭影音, 服务千万家庭影音发烧友!

[美剧] 间谍亚契 第十一季4k Archer S11E01 2160p-4k电视剧下载

碧池 发表于 2020-9-29 10:10:40 | 显示全部楼层
电视剧频道
电视剧封面:
电视剧名: 间谍亚契 第十一季4k
年  代: 2020  
国  家: 美国
类  别: 喜剧 动画 
语  言: 英语
字  幕: 英文原版
上映日期: 2020-09-16
文件格式: mkv    
视频效果: 4K(3840x2160)    
资源大小: 734.3 MB GB
片  长: 21 分钟
导  演: -
剧情简介: 这是一部由亚当里德(Adam meijubar.net Reed)制作的时长30分钟的动画喜剧。讲述的是发生在一家国际情报机构ISIS的故事。在危机席卷全球的时刻,这对ISIS训练有素的员工而言恰恰是一个彼此勾结、破坏、背叛的机会。
  男星乔恩·本杰明(Jon Benjamin)担任剧中温文尔雅而又缺乏男子气概的间谍主管Sterling Archer的配音,杰西卡·沃尔特(Jessica Walter)担任他盛气凌人的母亲兼老板Malory的配音工作,阿伊莎·泰勒(Aisha Tyler)在剧中为他的前女友——间谍Lana Kane配音,朱迪·格里尔(Judy Greer)则为Malory的秘书Chery担任配音。
间谍亚契 第十一季4k Archer S11E01 2160p AMZN WEB-DL x265 HEVC AI 10bit EAC3 5.1-4k电视剧信息
  1. Video
  2. ID : 3
  3. Format : HEVC
  4. Format/Info : High Efficiency Video Coding
  5. Codec ID : V_MPEGH/ISO/HEVC
  6. Duration : 24 min 6 s
  7. Bit rate : 4 000 kb/s
  8. Width : 3 840 pixels
  9. Height : 2 160 pixels
  10. Display aspect ratio : 16:9
  11. Frame rate mode : Constant
  12. Frame rate : 23.976 (24000/1001) FPS
  13. Color space : YUV
  14. Chroma subsampling : 4:2:0
  15. Bit depth : 10 bits
  16. Bits/(Pixel*Frame) : 0.020
  17. Stream size : 690 MiB (94%)
  18. Writing library : x265 3.3+2-gbe2d82093:[Windows][GCC 9.2.0][64 bit] 10bit
  19. Encoding settings : cpuid=1111039 / frame-threads=3 / numa-pools=8 / wpp / no-pmode / no-pme / no-psnr / ssim / log-level=2 / input-csp=1 / input-res=3840x2160 / interlace=0 / total-frames=34687 / level-idc=0 / high-tier=1 / uhd-bd=0 / ref=4 / no-allow-non-conformance / no-repeat-headers / annexb / no-aud / no-hrd / info / hash=0 / no-temporal-layers / open-gop / min-keyint=23 / keyint=250 / gop-lookahead=0 / bframes=8 / b-adapt=2 / b-pyramid / bframe-bias=40 / rc-lookahead=80 / lookahead-slices=4 / scenecut=40 / hist-scenecut=0 / radl=0 / no-splice / no-intra-refresh / ctu=64 / min-cu-size=8 / rect / no-amp / max-tu-size=32 / tu-inter-depth=1 / tu-intra-depth=1 / limit-tu=0 / rdoq-level=2 / dynamic-rd=0.00 / ssim-rd / signhide / no-tskip / nr-intra=0 / nr-inter=0 / constrained-intra / strong-intra-smoothing / max-merge=5 / limit-refs=3 / limit-modes / me=3 / subme=7 / merange=57 / temporal-mvp / no-frame-dup / no-hme / weightp / no-weightb / no-analyze-src-pics / deblock=4:4 / sao / no-sao-non-deblock / rd=4 / selective-sao=4 / early-skip / rskip / no-fast-intra / no-tskip-fast / no-cu-lossless / no-b-intra / splitrd-skip / rdpenalty=0 / psy-rd=3.50 / psy-rdoq=2.50 / no-rd-refine / no-lossless / cbqpoffs=0 / crqpoffs=0 / rc=abr / bitrate=4000 / qcomp=0.60 / qpstep=4 / stats-write=0 / stats-read=2 / cplxblur=20.0 / qblur=0.5 / ipratio=1.40 / pbratio=1.30 / aq-mode=3 / aq-strength=0.40 / cutree / zone-count=0 / no-strict-cbr / qg-size=32 / no-rc-grain / qpmax=69 / qpmin=0 / no-const-vbv / sar=0 / overscan=0 / videoformat=5 / range=0 / colorprim=2 / transfer=2 / colormatrix=2 / chromaloc=0 / display-window=0 / cll=0,0 / min-luma=0 / max-luma=1023 / log2-max-poc-lsb=8 / vui-timing-info / vui-hrd-info / slices=1 / no-opt-qp-pps / no-opt-ref-list-length-pps / multi-pass-opt-rps / scenecut-bias=0.05 / hist-threshold=0.01 / no-opt-cu-delta-qp / no-aq-motion / no-hdr10 / no-hdr10-opt / no-dhdr10-opt / no-idr-recovery-sei / analysis-load / analysis-reuse-level=10 / analysis-save-reuse-level=0 / analysis-load-reuse-level=10 / scale-factor=0 / refine-intra=0 / refine-inter=0 / refine-mv=1 / refine-ctu-distortion=1 / limit-sao / ctu-info=0 / no-lowpass-dct / refine-analysis-type=0 / copy-pic=1 / max-ausize-factor=1.0 / no-dynamic-refine / no-single-sei / no-hevc-aq / no-svt / no-field / qp-adaptation-range=1.00 / no-scenecut-aware-qpconformance-window-offsets / right=0 / bottom=0
  20. Default : Yes
  21. Forced : No

  22. Audio
  23. ID : 1
  24. Format : E-AC-3
  25. Format/Info : Enhanced Audio Coding 3
  26. Format settings, Endianness : Big
  27. Codec ID : A_EAC3
  28. Duration : 24 min 6 s
  29. Bit rate mode : Constant
  30. Bit rate : 256 kb/s
  31. Channel(s) : 6 channels
  32. Channel positions : Front: L C R, Side: L R, LFE
  33. Sampling rate : 48.0 kHz
  34. Frame rate : 187.500 FPS (256 spf)
  35. Compression mode : Lossy
  36. Stream size : 44.2 MiB (6%)
  37. Language : English
  38. Default : Yes
  39. Forced : No

  40. Subtitle
  41. ID : 2
  42. Format : UTF-8
  43. Codec ID : S_TEXT/UTF8
  44. Codec ID/Info : UTF-8 Plain Text
  45. Duration : 23 min 45 s
  46. Bit rate : 114 b/s
  47. Count of elements : 619
  48. Stream size : 19.9 KiB (0%)
  49. Language : English
  50. Default : No
  51. Forced : No

  52. Menu
  53. 00:00:00.000 : en:Chapter 1
  54. 00:03:37.090 : en:Chapter 2
  55. 00:10:46.170 : en:Chapter 3
  56. 00:18:59.140 : en:Chapter 4
复制代码

间谍亚契 第十一季4k Archer S11E01 2160p AMZN WEB-DL x265 HEVC AI 10bit EAC3 5.1-4k电视剧下载

间谍亚契 第十一季4k Archer S11E01 2160p AMZN WEB-DL x265 HEVC AI 10bit EAC3 5.1【734.3 MB】
间谍亚契 第十一季4k 第一集下载.txt
(132 Bytes)
回复

使用道具 举报

发烧友评论3

倒序浏览
fenrei 发表于 2020-10-7 17:29:54 | 显示全部楼层
这个4K资源很不错哦,我喜欢。赶紧试试我家4K电视
回复 支持 反对

使用道具 举报

您需要登录后才可以回帖 登录 | 立即注册

本版积分规则

在线客服

在线客服

服务时间 9:00—18:00

返回顶部

关注微信公众号第一时间推送精彩

官方微信

手机访问

Hao4K影音

专注4k家庭影音,提供家庭影音社区,家庭影音器材库,影音问答平台,影音商城,服务千万家庭影音用户。

本站内容部分由用户自主分享和转载自互联网,转载目的在于传递更多信息,并不代表本网赞同其观点和对其真实性负责。

如有侵权、违反国家法律政策行为,请联系我们,我们会第一时间及时清除和处理!

举报反馈邮箱:admin@hao4k.cn

Copyright  2019-2020  Hao4K影音粤公网安备 44030302001429号    ( 粤ICP备18155646号-1 )|网站地图