专注4K家庭影音, 服务千万家庭影音发烧友!

[待验证4K资源] 人间世·抗疫特别节目4K[全6集]][2020]COVID19.EP01-06.2020.4K.WEB-DL.HEVC.AAC-HQC.magnet

ferrarifxxevo 发表于 2020-10-4 16:44:04 | 显示全部楼层
电影频道
电影封面:
片  名: 人间世·抗疫特别节目
电影分类: 纪录片 
国  家: 中国大陆 
年  代: 2020年
分 辨 率: 4K(3840x2160)
电影格式: mp4 
画质标准: 其他 
音质编码: 其他AAC 
电影声道: 2.0声道 
帧数/FPS: 25 FPS
电影语言: 中文简体 
资源大小: 6.34 GB
导  演: 范士广
豆瓣评分: 9.4 分
中文字幕: -
剧情简介: 2020年3月,《人间世》纪录片团队再度出发。这一次,我们依然和一线医护在一起,和重症患者在一起;和医学专家在一起,也和老人与孩子在一起。我们记录下故事,也记录下残章;记录生的欢畅,也记录死亡。历时两个多月,我们拍摄了逾三万分钟的素材,剪辑成四集160分钟纪录片。


General
Complete name                  : H:\Life.Matters,The.Battle.Against.COVID19.EP01-06.2020.4K.WEB-DL.HEVC.AAC-HQC\02.mp4
Format                         : MPEG-4
Format profile                 : Base Media
Codec ID                       : isom (isom/iso2/mp41)
File size                      : 1.28 GiB
Duration                       : 41 min 15 s
Overall bit rate               : 4 427 kb/s
Writing application            : Lavf58.32.104

Video
ID                             : 1
Format                         : HEVC
Format/Info                    : High Efficiency Video Coding
Format profile                 : Main@L5@Main
Codec ID                       : hev1
Codec ID/Info                  : High Efficiency Video Coding
Duration                       : 41 min 15 s
Bit rate                       : 4 293 kb/s
Width                          : 3 840 pixels
Height                         : 2 160 pixels
Display aspect ratio           : 16:9
Frame rate mode                : Variable
Frame rate                     : 25.000 FPS
Minimum frame rate             : 24.993 FPS
Maximum frame rate             : 25.007 FPS
Color space                    : YUV
Chroma subsampling             : 4:2:0
Bit depth                      : 8 bits
Bits/(Pixel*Frame)             : 0.021
Stream size                    : 1.24 GiB (97%)
Codec configuration box        : hvcC

Audio
ID                             : 2
Format                         : AAC LC
Format/Info                    : Advanced Audio Codec Low Complexity
Codec ID                       : mp4a-40-2
Duration                       : 41 min 14 s
Bit rate mode                  : Constant
Bit rate                       : 128 kb/s
Channel(s)                     : 2 channels
Channel layout                 : L R
Sampling rate                  : 48.0 kHz
Frame rate                     : 46.875 FPS (1024 SPF)
Compression mode               : Lossy
Stream size                    : 37.8 MiB (3%)
Default                        : Yes
Alternate group                : 1



Life.Matters,The.Battle.Against.COVID19.EP01-06.2020.4K.WEB-DL.HEVC.AAC-HQC.torrent
(127.31 KB)
回复

使用道具 举报

发烧友评论20

倒序浏览
iritium77 发表于 2020-10-6 11:18:18 | 显示全部楼层
致敬抗疫英雄,英雄创造的史诗,值得收藏
回复 支持 反对

使用道具 举报

guoming 发表于 2020-10-6 07:41:23 | 显示全部楼层
抗疫纪录片,下来看看,谢谢分享!
回复 支持 反对

使用道具 举报

lin1121 发表于 2020-10-18 20:45:55 | 显示全部楼层
谢谢分享 致敬
回复 支持 反对

使用道具 举报

流浪的熊猫 发表于 2020-10-11 10:24:27 | 显示全部楼层
致敬 人类历史上的奇迹
回复 支持 反对

使用道具 举报

artmuse 发表于 2020-10-6 23:02:40 | 显示全部楼层
抗疫必胜谢谢分享!
回复 支持 反对

使用道具 举报

曾经年轻 发表于 2020-10-6 18:10:08 | 显示全部楼层
感谢楼主无私分享
回复 支持 反对

使用道具 举报

XIXI0521cy 发表于 2020-10-6 15:49:09 | 显示全部楼层
谢谢分享。。下来看看。
回复 支持 反对

使用道具 举报

ywf6168 发表于 2020-10-6 13:30:29 Hao4K手机版 | 显示全部楼层
向英雄致敬,谢谢分享
回复 支持 反对

使用道具 举报

zhao19843 发表于 2020-10-6 12:43:37 | 显示全部楼层
支持支持!~~感谢发布!
回复 支持 反对

使用道具 举报

mhq112233 发表于 2020-10-6 11:20:49 | 显示全部楼层
致敬致敬致敬
回复 支持 反对

使用道具 举报

lywzj238 发表于 2020-10-6 08:22:56 | 显示全部楼层
谢谢分享好东东
回复 支持 反对

使用道具 举报

lywzj238 发表于 2020-10-5 18:52:42 | 显示全部楼层
谢谢分享好电影
回复 支持 反对

使用道具 举报

yangly 发表于 2020-10-5 13:51:05 Hao4K手机版 | 显示全部楼层
抗疫纪录片,谢谢分享
回复 支持 反对

使用道具 举报

您需要登录后才可以回帖 登录 | 立即注册

本版积分规则


0关注

1粉丝

0帖子

热门图文主题
热门主题
社区广告

在线客服

在线客服

服务时间 9:00—18:00

返回顶部

关注微信公众号第一时间推送精彩

官方微信

手机访问

Hao4K影音

专注4k家庭影音,提供家庭影音社区,家庭影音器材库,影音问答平台,影音商城,服务千万家庭影音用户。

本站内容部分由用户自主分享和转载自互联网,转载目的在于传递更多信息,并不代表本网赞同其观点和对其真实性负责。

如有侵权、违反国家法律政策行为,请联系我们,我们会第一时间及时清除和处理!

举报反馈邮箱:admin@hao4k.cn

Copyright  2019-2020  Hao4K影音粤公网安备 44030302001429号    ( 粤ICP备18155646号-1 )|网站地图