专注4K家庭影音, 服务千万家庭影音发烧友!

[美剧] 怪物乐园4k Monsterland.S01.2160p.HULU.WEBRip.DDP5.1.x265-4k美剧下载

大红色 发表于 2020-10-9 11:12:57 | 显示全部楼层
电视剧频道
电视剧封面:
电视剧名: 怪物乐园4k
年  代: 2020  
国  家: 美国
类  别: 恐怖 
语  言: 英语
字  幕: 英文原版
上映日期: 2020-10-02
文件格式: mkv    
视频效果: 4K(3840x2160)    
资源大小: 43.94 GB
片  长: -
导  演: 巴巴克·安瓦里 / 克雷格·麦克尼尔
剧情简介: Hulu的恐怖诗选剧《怪兽乐园 Monsterland》改编自Nathan Ballingrud短篇集《North American Lake Monsters: Stories》,剧集角色包括一些奇幻生物,例如堕落天使﹑狼人等,他们为求扭转自己的生活而绝望地采取一些行为,从而表达出人类与「他们」的差异其实并不大。
怪兽的土地 / 怪兽乐园/怪物乐园4k Monsterland.S01.2160p.HULU.WEBRip.DDP5.1.x265-4k美剧信息
  1. Video
  2. ID : 1
  3. Format : HEVC
  4. Format/Info : High Efficiency Video Coding
  5. Format profile : Main 10@L5.1@Main
  6. Codec ID : V_MPEGH/ISO/HEVC
  7. Duration : 53 min 45 s
  8. Bit rate : 15.1 Mb/s
  9. Width : 3 840 pixels
  10. Height : 2 160 pixels
  11. Display aspect ratio : 16:9
  12. Frame rate mode : Constant
  13. Frame rate : 23.976 (24000/1001) FPS
  14. Color space : YUV
  15. Chroma subsampling : 4:2:0
  16. Bit depth : 10 bits
  17. Bits/(Pixel*Frame) : 0.076
  18. Stream size : 5.66 GiB (96%)
  19. Default : Yes
  20. Forced : No

  21. Audio
  22. ID : 2
  23. Format : E-AC-3
  24. Format/Info : Enhanced AC-3
  25. Commercial name : Dolby Digital Plus
  26. Codec ID : A_EAC3
  27. Duration : 53 min 45 s
  28. Bit rate mode : Constant
  29. Bit rate : 256 kb/s
  30. Channel(s) : 6 channels
  31. Channel layout : L R C LFE Ls Rs
  32. Sampling rate : 48.0 kHz
  33. Frame rate : 31.250 FPS (1536 SPF)
  34. Compression mode : Lossy
  35. Stream size : 98.4 MiB (2%)
  36. Language : English
  37. Service kind : Complete Main
  38. Default : Yes
  39. Forced : No
复制代码

怪兽的土地 / 怪兽乐园/怪物乐园4k Monsterland.S01.2160p.HULU.WEBRip.DDP5.1.x265-4k美剧下载

怪物乐园4k Monsterland.S01.2160p.HULU.WEBRip.DDP5.1.x265【43.94 GB】
[Hao4k]怪物乐园4k Monsterland.S01.2160p.HULU.WEBRip.DDP5.1.x265-CAKES[rartv].torrent
(110.92 KB)
回复

使用道具 举报

发烧友评论1

倒序浏览
16437486 发表于 2020-10-12 19:43:41 | 显示全部楼层
哪里有字幕可下
回复 支持 反对

使用道具 举报

您需要登录后才可以回帖 登录 | 立即注册

本版积分规则

在线客服

在线客服

服务时间 9:00—18:00

返回顶部

关注微信公众号第一时间推送精彩

官方微信

手机访问

Hao4K影音

专注4k家庭影音,提供家庭影音社区,家庭影音器材库,影音问答平台,影音商城,服务千万家庭影音用户。

本站内容部分由用户自主分享和转载自互联网,转载目的在于传递更多信息,并不代表本网赞同其观点和对其真实性负责。

如有侵权、违反国家法律政策行为,请联系我们,我们会第一时间及时清除和处理!

举报反馈邮箱:admin@hao4k.cn

Copyright  2019-2020  Hao4K影音粤公网安备 44030302001429号    ( 粤ICP备18155646号-1 )|网站地图