专注4K家庭影音, 服务千万家庭影音发烧友!

[美剧] 上帝之鸟4k The.Good.Lord.Bird.S01E01.Meet.the.Lord.2160p.SHO.WEBRip.DDP5.1.x265-4k美剧下载

大红色 发表于 2020-10-9 11:26:27 | 显示全部楼层
电视剧频道
电视剧封面:
电视剧名: 上帝之鸟4k
年  代: 2020  
国  家: 美国
类  别: 剧情 
语  言: 英语
字  幕: 英文原版
上映日期: 2020-10-04
文件格式: mkv    
视频效果: 4K(3840x2160)    
资源大小: 6.04 GB
片  长: -
导  演: 海法·曼苏尔 / 艾尔伯特·休斯 / 迈克尔·南金 / 凯特·伍兹
剧情简介: 伊桑·霍克将主演、编剧和执行制作新剧《上帝鸟》(The Good Lord Bird),改编自作家詹姆斯·麦克布莱德的同名小说,从小男孩亨利的视角讲述:1857年,他是堪萨斯的一名黑奴,他的主人与著名废奴主义领导人约翰·布朗起了冲突,布朗带走了亨利,以为亨利是女孩,给了他一条裙子穿,并给他起了“小洋葱”的外号。途中亨利挣扎求生,并逐渐融入布朗的大家庭中。直到1859年,他参与了布朗发起的著名事件:哈普斯渡口袭击,这是美国南北内战的主要导火索。
  小说以幽默轻松的语言,塑造了布朗这个坚定的起义领导人和逐渐成长的少年亨利的形象。霍克表示这是自己很有热情的项目,是他最爱的书之一,他将饰演布朗。
  Showtime已订下整季8集,安东尼·海明威(《无耻之徒》《火线》《美国犯罪故事:公诉辛普森》)执导,制作方是Blumhouse电视。
上帝鸟/上帝之鸟4k The.Good.Lord.Bird.S01E01.Meet.the.Lord.2160p.SHO.WEBRip.DDP5.1.x265-4k美剧信息
  1. Video
  2. ID : 1
  3. Format : HEVC
  4. Format/Info : High Efficiency Video Coding
  5. Format profile : Main@L5@Main
  6. Codec ID : V_MPEGH/ISO/HEVC
  7. Duration : 56 min 47 s
  8. Bit rate : 14.6 Mb/s
  9. Width : 3 840 pixels
  10. Height : 2 160 pixels
  11. Display aspect ratio : 16:9
  12. Frame rate mode : Constant
  13. Frame rate : 23.976 (24000/1001) FPS
  14. Color space : YUV
  15. Chroma subsampling : 4:2:0
  16. Bit depth : 8 bits
  17. Bits/(Pixel*Frame) : 0.073
  18. Stream size : 5.78 GiB (96%)
  19. Writing library : x265 2.8hy:[Linux][GCC 7.5.0][64 bit] 8bit
  20. Encoding settings : cpuid=1111039 / frame-threads=1 / no-wpp / no-pmode / no-pme / no-psnr / no-ssim / log-level=2 / input-csp=1 / input-res=3840x2160 / interlace=0 / total-frames=0 / level-idc=0 / high-tier=1 / uhd-bd=0 / ref=4 / no-allow-non-conformance / repeat-headers / annexb / aud / hrd / info / hash=0 / no-temporal-layers / no-open-gop / min-keyint=48 / keyint=48 / gop-lookahead=0 / bframes=4 / b-adapt=2 / b-pyramid / bframe-bias=0 / rc-lookahead=48 / lookahead-slices=4 / scenecut=0 / radl=0 / no-intra-refresh / ctu=64 / min-cu-size=8 / rect / no-amp / max-tu-size=32 / tu-inter-depth=1 / tu-intra-depth=1 / limit-tu=0 / rdoq-level=2 / dynamic-rd=0.00 / no-ssim-rd / signhide / no-tskip / nr-intra=100 / nr-inter=400 / no-constrained-intra / strong-intra-smoothing / max-merge=3 / limit-refs=3 / limit-modes / me=3 / subme=3 / merange=57 / temporal-mvp / weightp / no-weightb / no-analyze-src-pics / deblock=0:0 / sao / no-sao-non-deblock / rd=4 / no-early-skip / rskip / no-fast-intra / no-tskip-fast / no-cu-lossless / no-b-intra / no-splitrd-skip / rdpenalty=0 / psy-rd=0.00 / psy-rdoq=1.00 / no-rd-refine / no-lossless / cbqpoffs=0 / crqpoffs=0 / rc=abr / bitrate=15000 / qcomp=0.60 / qpstep=4 / stats-write=0 / stats-read=2 / cplxblur=20.0 / qblur=0.5 / vbv-maxrate=18000 / vbv-bufsize=12000 / vbv-init=0.6 / vbv-end=0.6 / vbv-end-fr-adj=0.0 / ipratio=1.40 / pbratio=1.30 / aq-mode=1 / aq-strength=1.00 / cutree / zone-count=0 / no-strict-cbr / qg-size=32 / no-rc-grain / qpmax=69 / qpmin=0 / no-const-vbv / sar=1 / overscan=0 / videoformat=5 / range=0 / colorprim=1 / transfer=1 / colormatrix=1 / chromaloc=0 / display-window=0 / max-cll=0,0 / min-luma=0 / max-luma=255 / log2-max-poc-lsb=8 / vui-timing-info / vui-hrd-info / no-concatenation / slices=1 / no-opt-qp-pps / no-opt-ref-list-length-pps / no-multi-pass-opt-rps / scenecut-bias=0.05 / no-opt-cu-delta-qp / no-aq-motion / no-hdr / no-hdr-opt / no-dhdr10-opt / no-idr-recovery-sei / analysis-reuse-level=5 / scale-factor=0 / refine-intra=0 / refine-inter=0 / refine-mv=0 / no-limit-sao / ctu-info=0 / no-lowpass-dct / refine-mv-type=0 / copy-pic=1 / max-ausize-factor=1.0 / no-dynamic-refine / no-single-sei
  21. Default : Yes
  22. Forced : No
  23. Color range : Limited
  24. Color primaries : BT.709
  25. Transfer characteristics : BT.709
  26. Matrix coefficients : BT.709

  27. Audio
  28. ID : 2
  29. Format : E-AC-3
  30. Format/Info : Enhanced AC-3
  31. Commercial name : Dolby Digital Plus
  32. Codec ID : A_EAC3
  33. Duration : 57 min 26 s
  34. Bit rate mode : Constant
  35. Bit rate : 640 kb/s
  36. Channel(s) : 6 channels
  37. Channel layout : L R C LFE Ls Rs
  38. Sampling rate : 48.0 kHz
  39. Frame rate : 31.250 FPS (1536 SPF)
  40. Compression mode : Lossy
  41. Stream size : 263 MiB (4%)
  42. Language : English
  43. Service kind : Complete Main
  44. Default : Yes
  45. Forced : No

  46. Text
  47. ID : 3
  48. Format : UTF-8
  49. Codec ID : S_TEXT/UTF8
  50. Codec ID/Info : UTF-8 Plain Text
  51. Duration : 56 min 2 s
  52. Bit rate : 139 b/s
  53. Count of elements : 1257
  54. Stream size : 57.2 KiB (0%)
  55. Language : English
  56. Default : No
  57. Forced : No
复制代码

上帝鸟/上帝之鸟4k The.Good.Lord.Bird.S01E01.Meet.the.Lord.2160p.SHO.WEBRip.DDP5.1.x265-4k美剧下载

上帝之鸟4k The.Good.Lord.Bird.S01E01.Meet.the.Lord.2160p.SHO.WEBRip.DDP5.1.x265【6.04 GB】
[Hao4k]上帝之鸟4k The.Good.Lord.Bird.S01E01.Meet.the.Lord.2160p.SHO.WEBRip.DDP5..torrent
(30.77 KB)
回复

使用道具 举报

您需要登录后才可以回帖 登录 | 立即注册

本版积分规则

在线客服

在线客服

服务时间 9:00—18:00

返回顶部

关注微信公众号第一时间推送精彩

官方微信

手机访问

Hao4K影音

专注4k家庭影音,提供家庭影音社区,家庭影音器材库,影音问答平台,影音商城,服务千万家庭影音用户。

本站内容部分由用户自主分享和转载自互联网,转载目的在于传递更多信息,并不代表本网赞同其观点和对其真实性负责。

如有侵权、违反国家法律政策行为,请联系我们,我们会第一时间及时清除和处理!

举报反馈邮箱:admin@hao4k.cn

Copyright  2019-2020  Hao4K影音粤公网安备 44030302001429号    ( 粤ICP备18155646号-1 )|网站地图