专注4K家庭影音, 服务千万家庭影音发烧友!

[美剧] 小小世界4k Tiny.World.S01.2160p.ATVP.WEBRip.DDP5.1.Atmos.x265-4k电视剧纪录片下载

大红色 发表于 2020-10-9 11:59:38 | 显示全部楼层
电视剧频道
电视剧封面:
电视剧名: 小小世界4k
年  代: 2020  
国  家: 美国
类  别: 纪录片 
语  言: 英语
字  幕: 英文原版
上映日期: 2020-10-02
文件格式: mkv    
视频效果: 4K(3840x2160)    
资源大小: 35.36 GB
片  长: -
导  演: Tom Hugh
剧情简介: 该纪录影集由保罗·路德[ 蚁人 ]担任解说,以令人叹为观止的摄影技术,带领观众深入大自然,探索各种小型生物坚韧的生命力,见证这些鲜为人知的小英雄背后的故事。
小小世界4k Tiny.World.S01.2160p.ATVP.WEBRip.DDP5.1.Atmos.x265-4k电视剧纪录片信息
  1. Video
  2. ID : 1
  3. Format : HEVC
  4. Format/Info : High Efficiency Video Coding
  5. Format profile : Main 10@L5.1@High
  6. Codec ID : V_MPEGH/ISO/HEVC
  7. Duration : 31 min 17 s
  8. Bit rate : 27.1 Mb/s
  9. Width : 3 840 pixels
  10. Height : 2 160 pixels
  11. Display aspect ratio : 16:9
  12. Frame rate mode : Constant
  13. Frame rate : 23.976 (24000/1001) FPS
  14. Color space : YUV
  15. Chroma subsampling : 4:2:0
  16. Bit depth : 10 bits
  17. Bits/(Pixel*Frame) : 0.136
  18. Stream size : 5.92 GiB (97%)
  19. Writing library : x265 3.0_Au+4-dcbec33bfb0f:[Windows][GCC 8.2.1][64 bit] 10bit
  20. Encoding settings : cpuid=1111039 / frame-threads=4 / numa-pools=28 / wpp / no-pmode / no-pme / no-psnr / no-ssim / log-level=2 / input-csp=1 / input-res=3840x2160 / interlace=0 / total-frames=45021 / level-idc=51 / high-tier=1 / uhd-bd=0 / ref=5 / no-allow-non-conformance / repeat-headers / annexb / aud / hrd / info / hash=0 / no-temporal-layers / open-gop / min-keyint=23 / keyint=250 / gop-lookahead=0 / bframes=8 / b-adapt=2 / b-pyramid / bframe-bias=0 / rc-lookahead=40 / lookahead-slices=8 / scenecut=40 / radl=0 / no-splice / no-intra-refresh / ctu=64 / min-cu-size=8 / no-rect / no-amp / max-tu-size=32 / tu-inter-depth=4 / tu-intra-depth=4 / limit-tu=4 / rdoq-level=0 / dynamic-rd=0.00 / no-ssim-rd / signhide / no-tskip / nr-intra=0 / nr-inter=0 / no-constrained-intra / strong-intra-smoothing / max-merge=4 / limit-refs=3 / no-limit-modes / me=1 / subme=5 / merange=57 / temporal-mvp / weightp / weightb / no-analyze-src-pics / deblock=-3:-3 / no-sao / no-sao-non-deblock / rd=4 / no-early-skip / rskip / no-fast-intra / no-tskip-fast / no-cu-lossless / b-intra / no-splitrd-skip / rdpenalty=0 / psy-rd=2.00 / psy-rdoq=0.00 / no-rd-refine / no-lossless / cbqpoffs=0 / crqpoffs=0 / rc=crf / crf=19.0 / qcomp=0.60 / qpstep=4 / stats-write=0 / stats-read=0 / vbv-maxrate=160000 / vbv-bufsize=160000 / vbv-init=0.9 / crf-max=0.0 / crf-min=0.0 / ipratio=1.30 / pbratio=1.20 / aq-mode=1 / aq-strength=0.85 / no-cutree / zone-count=0 / no-strict-cbr / qg-size=32 / no-rc-grain / qpmax=69 / qpmin=0 / no-const-vbv / sar=1 / overscan=0 / videoformat=5 / range=0 / colorprim=1 / transfer=1 / colormatrix=1 / chromaloc=0 / display-window=0 / max-cll=0,0 / min-luma=0 / max-luma=1023 / log2-max-poc-lsb=8 / vui-timing-info / vui-hrd-info / slices=1 / no-opt-qp-pps / no-opt-ref-list-length-pps / no-multi-pass-opt-rps / scenecut-bias=0.05 / no-opt-cu-delta-qp / no-aq-motion / no-hdr / no-hdr-opt / no-dhdr10-opt / no-idr-recovery-sei / analysis-reuse-level=5 / scale-factor=0 / refine-intra=0 / refine-inter=0 / refine-mv=0 / refine-ctu-distortion=0 / no-limit-sao / ctu-info=0 / no-lowpass-dct / refine-analysis-type=0 / copy-pic=1 / max-ausize-factor=1.0 / no-dynamic-refine / no-single-sei / no-hevc-aq / qp-adaptation-range=1.00
  21. Default : Yes
  22. Forced : No
  23. Color range : Limited
  24. Color primaries : BT.709
  25. Transfer characteristics : BT.709
  26. Matrix coefficients : BT.709

  27. Audio
  28. ID : 2
  29. Format : E-AC-3 JOC
  30. Format/Info : Enhanced AC-3 with Joint Object Coding
  31. Commercial name : Dolby Digital Plus with Dolby Atmos
  32. Codec ID : A_EAC3
  33. Duration : 31 min 17 s
  34. Bit rate mode : Constant
  35. Bit rate : 768 kb/s
  36. Channel(s) : 6 channels
  37. Channel layout : L R C LFE Ls Rs
  38. Sampling rate : 48.0 kHz
  39. Frame rate : 31.250 FPS (1536 SPF)
  40. Compression mode : Lossy
  41. Stream size : 172 MiB (3%)
  42. Language : English
  43. Service kind : Complete Main
  44. Default : Yes
  45. Forced : No
  46. Complexity index : 16
  47. Number of dynamic objects : 15
  48. Bed channel count : 1 channel
  49. Bed channel configuration : LFE

  50. Text #1
  51. ID : 3
  52. Format : UTF-8
  53. Codec ID : S_TEXT/UTF8
  54. Codec ID/Info : UTF-8 Plain Text
  55. Duration : 31 min 5 s
  56. Bit rate : 57 b/s
  57. Count of elements : 219
  58. Stream size : 13.0 KiB (0%)
  59. Language : Arabic
  60. Default : No
  61. Forced : No

  62. Text #2
  63. ID : 4
  64. Format : UTF-8
  65. Codec ID : S_TEXT/UTF8
  66. Codec ID/Info : UTF-8 Plain Text
  67. Duration : 31 min 5 s
  68. Bit rate : 60 b/s
  69. Count of elements : 209
  70. Stream size : 13.8 KiB (0%)
  71. Language : Bulgarian
  72. Default : No
  73. Forced : No

  74. Text #3
  75. ID : 5
  76. Format : UTF-8
  77. Codec ID : S_TEXT/UTF8
  78. Codec ID/Info : UTF-8 Plain Text
  79. Duration : 31 min 5 s
  80. Bit rate : 35 b/s
  81. Count of elements : 222
  82. Stream size : 8.09 KiB (0%)
  83. Title : Simplified Mandarin
  84. Language : Chinese
  85. Default : No
  86. Forced : No

  87. Text #4
  88. ID : 6
  89. Format : UTF-8
  90. Codec ID : S_TEXT/UTF8
  91. Codec ID/Info : UTF-8 Plain Text
  92. Duration : 31 min 5 s
  93. Bit rate : 31 b/s
  94. Count of elements : 223
  95. Stream size : 7.25 KiB (0%)
  96. Title : Traditional Mandarin
  97. Language : Chinese
  98. Default : No
  99. Forced : No

  100. Text #5
  101. ID : 7
  102. Format : UTF-8
  103. Codec ID : S_TEXT/UTF8
  104. Codec ID/Info : UTF-8 Plain Text
  105. Duration : 31 min 5 s
  106. Bit rate : 38 b/s
  107. Count of elements : 216
  108. Stream size : 8.74 KiB (0%)
  109. Language : Czech
  110. Default : No
  111. Forced : No

  112. Text #6
  113. ID : 8
  114. Format : UTF-8
  115. Codec ID : S_TEXT/UTF8
  116. Codec ID/Info : UTF-8 Plain Text
  117. Duration : 31 min 5 s
  118. Bit rate : 38 b/s
  119. Count of elements : 212
  120. Stream size : 8.66 KiB (0%)
  121. Language : Danish
  122. Default : No
  123. Forced : No

  124. Text #7
  125. ID : 9
  126. Format : UTF-8
  127. Codec ID : S_TEXT/UTF8
  128. Codec ID/Info : UTF-8 Plain Text
  129. Duration : 31 min 9 s
  130. Bit rate : 47 b/s
  131. Count of elements : 231
  132. Stream size : 10.8 KiB (0%)
  133. Language : German
  134. Default : No
  135. Forced : No

  136. Text #8
  137. ID : 10
  138. Format : UTF-8
  139. Codec ID : S_TEXT/UTF8
  140. Codec ID/Info : UTF-8 Plain Text
  141. Duration : 31 min 5 s
  142. Bit rate : 72 b/s
  143. Count of elements : 223
  144. Stream size : 16.4 KiB (0%)
  145. Language : Greek
  146. Default : No
  147. Forced : No

  148. Text #9
  149. ID : 11
  150. Format : UTF-8
  151. Codec ID : S_TEXT/UTF8
  152. Codec ID/Info : UTF-8 Plain Text
  153. Duration : 30 min 14 s
  154. Bit rate : 37 b/s
  155. Count of elements : 219
  156. Stream size : 8.39 KiB (0%)
  157. Language : English
  158. Default : No
  159. Forced : No

  160. Text #10
  161. ID : 12
  162. Format : UTF-8
  163. Codec ID : S_TEXT/UTF8
  164. Codec ID/Info : UTF-8 Plain Text
  165. Duration : 30 min 14 s
  166. Bit rate : 40 b/s
  167. Count of elements : 254
  168. Stream size : 8.90 KiB (0%)
  169. Title : SDH
  170. Language : English
  171. Default : No
  172. Forced : No

  173. Text #11
  174. ID : 13
  175. Format : UTF-8
  176. Codec ID : S_TEXT/UTF8
  177. Codec ID/Info : UTF-8 Plain Text
  178. Duration : 31 min 5 s
  179. Bit rate : 42 b/s
  180. Count of elements : 225
  181. Stream size : 9.78 KiB (0%)
  182. Title : Latin America
  183. Language : Spanish
  184. Default : No
  185. Forced : No

  186. Text #12
  187. ID : 14
  188. Format : UTF-8
  189. Codec ID : S_TEXT/UTF8
  190. Codec ID/Info : UTF-8 Plain Text
  191. Duration : 31 min 5 s
  192. Bit rate : 43 b/s
  193. Count of elements : 236
  194. Stream size : 9.85 KiB (0%)
  195. Title : Spain
  196. Language : Spanish
  197. Default : No
  198. Forced : No

  199. Text #13
  200. ID : 15
  201. Format : UTF-8
  202. Codec ID : S_TEXT/UTF8
  203. Codec ID/Info : UTF-8 Plain Text
  204. Duration : 31 min 5 s
  205. Bit rate : 36 b/s
  206. Count of elements : 216
  207. Stream size : 8.35 KiB (0%)
  208. Language : Estonian
  209. Default : No
  210. Forced : No

  211. Text #14
  212. ID : 16
  213. Format : UTF-8
  214. Codec ID : S_TEXT/UTF8
  215. Codec ID/Info : UTF-8 Plain Text
  216. Duration : 31 min 5 s
  217. Bit rate : 37 b/s
  218. Count of elements : 221
  219. Stream size : 8.65 KiB (0%)
  220. Language : Finnish
  221. Default : No
  222. Forced : No

  223. Text #15
  224. ID : 17
  225. Format : UTF-8
  226. Codec ID : S_TEXT/UTF8
  227. Codec ID/Info : UTF-8 Plain Text
  228. Duration : 31 min 7 s
  229. Bit rate : 41 b/s
  230. Count of elements : 255
  231. Stream size : 9.56 KiB (0%)
  232. Title : Canada
  233. Language : French
  234. Default : No
  235. Forced : No

  236. Text #16
  237. ID : 18
  238. Format : UTF-8
  239. Codec ID : S_TEXT/UTF8
  240. Codec ID/Info : UTF-8 Plain Text
  241. Duration : 31 min 7 s
  242. Bit rate : 41 b/s
  243. Count of elements : 254
  244. Stream size : 9.55 KiB (0%)
  245. Title : France
  246. Language : French
  247. Default : No
  248. Forced : No

  249. Text #17
  250. ID : 19
  251. Format : UTF-8
  252. Codec ID : S_TEXT/UTF8
  253. Codec ID/Info : UTF-8 Plain Text
  254. Duration : 31 min 5 s
  255. Bit rate : 53 b/s
  256. Count of elements : 222
  257. Stream size : 12.2 KiB (0%)
  258. Language : Hebrew
  259. Default : No
  260. Forced : No

  261. Text #18
  262. ID : 20
  263. Format : UTF-8
  264. Codec ID : S_TEXT/UTF8
  265. Codec ID/Info : UTF-8 Plain Text
  266. Duration : 31 min 5 s
  267. Bit rate : 102 b/s
  268. Count of elements : 223
  269. Stream size : 23.4 KiB (0%)
  270. Language : Hindi
  271. Default : No
  272. Forced : No

  273. Text #19
  274. ID : 21
  275. Format : UTF-8
  276. Codec ID : S_TEXT/UTF8
  277. Codec ID/Info : UTF-8 Plain Text
  278. Duration : 31 min 5 s
  279. Bit rate : 38 b/s
  280. Count of elements : 221
  281. Stream size : 8.86 KiB (0%)
  282. Language : Hungarian
  283. Default : No
  284. Forced : No

  285. Text #20
  286. ID : 22
  287. Format : UTF-8
  288. Codec ID : S_TEXT/UTF8
  289. Codec ID/Info : UTF-8 Plain Text
  290. Duration : 31 min 5 s
  291. Bit rate : 39 b/s
  292. Count of elements : 222
  293. Stream size : 9.09 KiB (0%)
  294. Language : Indonesian
  295. Default : No
  296. Forced : No

  297. Text #21
  298. ID : 23
  299. Format : UTF-8
  300. Codec ID : S_TEXT/UTF8
  301. Codec ID/Info : UTF-8 Plain Text
  302. Duration : 31 min 7 s
  303. Bit rate : 39 b/s
  304. Count of elements : 221
  305. Stream size : 9.06 KiB (0%)
  306. Language : Italian
  307. Default : No
  308. Forced : No

  309. Text #22
  310. ID : 24
  311. Format : UTF-8
  312. Codec ID : S_TEXT/UTF8
  313. Codec ID/Info : UTF-8 Plain Text
  314. Duration : 31 min 9 s
  315. Bit rate : 34 b/s
  316. Count of elements : 215
  317. Stream size : 7.90 KiB (0%)
  318. Language : Japanese
  319. Default : No
  320. Forced : No

  321. Text #23
  322. ID : 25
  323. Format : UTF-8
  324. Codec ID : S_TEXT/UTF8
  325. Codec ID/Info : UTF-8 Plain Text
  326. Duration : 31 min 5 s
  327. Bit rate : 42 b/s
  328. Count of elements : 223
  329. Stream size : 9.75 KiB (0%)
  330. Language : Korean
  331. Default : No
  332. Forced : No

  333. Text #24
  334. ID : 26
  335. Format : UTF-8
  336. Codec ID : S_TEXT/UTF8
  337. Codec ID/Info : UTF-8 Plain Text
  338. Duration : 31 min 5 s
  339. Bit rate : 40 b/s
  340. Count of elements : 222
  341. Stream size : 9.28 KiB (0%)
  342. Language : Lithuanian
  343. Default : No
  344. Forced : No

  345. Text #25
  346. ID : 27
  347. Format : UTF-8
  348. Codec ID : S_TEXT/UTF8
  349. Codec ID/Info : UTF-8 Plain Text
  350. Duration : 31 min 5 s
  351. Bit rate : 37 b/s
  352. Count of elements : 220
  353. Stream size : 8.54 KiB (0%)
  354. Language : Latvian
  355. Default : No
  356. Forced : No

  357. Text #26
  358. ID : 28
  359. Format : UTF-8
  360. Codec ID : S_TEXT/UTF8
  361. Codec ID/Info : UTF-8 Plain Text
  362. Duration : 31 min 5 s
  363. Bit rate : 40 b/s
  364. Count of elements : 222
  365. Stream size : 9.16 KiB (0%)
  366. Language : Malay
  367. Default : No
  368. Forced : No

  369. Text #27
  370. ID : 29
  371. Format : UTF-8
  372. Codec ID : S_TEXT/UTF8
  373. Codec ID/Info : UTF-8 Plain Text
  374. Duration : 31 min 5 s
  375. Bit rate : 36 b/s
  376. Count of elements : 206
  377. Stream size : 8.33 KiB (0%)
  378. Language : Dutch
  379. Default : No
  380. Forced : No

  381. Text #28
  382. ID : 30
  383. Format : UTF-8
  384. Codec ID : S_TEXT/UTF8
  385. Codec ID/Info : UTF-8 Plain Text
  386. Duration : 31 min 5 s
  387. Bit rate : 36 b/s
  388. Count of elements : 209
  389. Stream size : 8.22 KiB (0%)
  390. Language : Norwegian
  391. Default : No
  392. Forced : No

  393. Text #29
  394. ID : 31
  395. Format : UTF-8
  396. Codec ID : S_TEXT/UTF8
  397. Codec ID/Info : UTF-8 Plain Text
  398. Duration : 31 min 5 s
  399. Bit rate : 38 b/s
  400. Count of elements : 218
  401. Stream size : 8.75 KiB (0%)
  402. Language : Polish
  403. Default : No
  404. Forced : No

  405. Text #30
  406. ID : 32
  407. Format : UTF-8
  408. Codec ID : S_TEXT/UTF8
  409. Codec ID/Info : UTF-8 Plain Text
  410. Duration : 31 min 5 s
  411. Bit rate : 42 b/s
  412. Count of elements : 223
  413. Stream size : 9.58 KiB (0%)
  414. Language : Portuguese
  415. Default : No
  416. Forced : No

  417. Text #31
  418. ID : 33
  419. Format : UTF-8
  420. Codec ID : S_TEXT/UTF8
  421. Codec ID/Info : UTF-8 Plain Text
  422. Duration : 31 min 5 s
  423. Bit rate : 37 b/s
  424. Count of elements : 223
  425. Stream size : 8.43 KiB (0%)
  426. Title : Brazil
  427. Language : Portuguese
  428. Default : No
  429. Forced : No

  430. Text #32
  431. ID : 34
  432. Format : UTF-8
  433. Codec ID : S_TEXT/UTF8
  434. Codec ID/Info : UTF-8 Plain Text
  435. Duration : 31 min 5 s
  436. Bit rate : 62 b/s
  437. Count of elements : 223
  438. Stream size : 14.3 KiB (0%)
  439. Language : Russian
  440. Default : No
  441. Forced : No

  442. Text #33
  443. ID : 35
  444. Format : UTF-8
  445. Codec ID : S_TEXT/UTF8
  446. Codec ID/Info : UTF-8 Plain Text
  447. Duration : 31 min 5 s
  448. Bit rate : 36 b/s
  449. Count of elements : 220
  450. Stream size : 8.39 KiB (0%)
  451. Language : Slovak
  452. Default : No
  453. Forced : No

  454. Text #34
  455. ID : 36
  456. Format : UTF-8
  457. Codec ID : S_TEXT/UTF8
  458. Codec ID/Info : UTF-8 Plain Text
  459. Duration : 31 min 5 s
  460. Bit rate : 34 b/s
  461. Count of elements : 221
  462. Stream size : 7.75 KiB (0%)
  463. Language : Slovenian
  464. Default : No
  465. Forced : No

  466. Text #35
  467. ID : 37
  468. Format : UTF-8
  469. Codec ID : S_TEXT/UTF8
  470. Codec ID/Info : UTF-8 Plain Text
  471. Duration : 31 min 5 s
  472. Bit rate : 39 b/s
  473. Count of elements : 221
  474. Stream size : 9.01 KiB (0%)
  475. Language : Swedish
  476. Default : No
  477. Forced : No

  478. Text #36
  479. ID : 38
  480. Format : UTF-8
  481. Codec ID : S_TEXT/UTF8
  482. Codec ID/Info : UTF-8 Plain Text
  483. Duration : 31 min 5 s
  484. Bit rate : 121 b/s
  485. Count of elements : 222
  486. Stream size : 27.6 KiB (0%)
  487. Language : Tamil
  488. Default : No
  489. Forced : No

  490. Text #37
  491. ID : 39
  492. Format : UTF-8
  493. Codec ID : S_TEXT/UTF8
  494. Codec ID/Info : UTF-8 Plain Text
  495. Duration : 31 min 5 s
  496. Bit rate : 108 b/s
  497. Count of elements : 222
  498. Stream size : 24.8 KiB (0%)
  499. Language : Telugu
  500. Default : No
  501. Forced : No

  502. Text #38
  503. ID : 40
  504. Format : UTF-8
  505. Codec ID : S_TEXT/UTF8
  506. Codec ID/Info : UTF-8 Plain Text
  507. Duration : 31 min 5 s
  508. Bit rate : 98 b/s
  509. Count of elements : 222
  510. Stream size : 22.5 KiB (0%)
  511. Language : Thai
  512. Default : No
  513. Forced : No

  514. Text #39
  515. ID : 41
  516. Format : UTF-8
  517. Codec ID : S_TEXT/UTF8
  518. Codec ID/Info : UTF-8 Plain Text
  519. Duration : 31 min 5 s
  520. Bit rate : 40 b/s
  521. Count of elements : 222
  522. Stream size : 9.21 KiB (0%)
  523. Language : Turkish
  524. Default : No
  525. Forced : No

  526. Text #40
  527. ID : 42
  528. Format : UTF-8
  529. Codec ID : S_TEXT/UTF8
  530. Codec ID/Info : UTF-8 Plain Text
  531. Duration : 31 min 5 s
  532. Bit rate : 65 b/s
  533. Count of elements : 223
  534. Stream size : 14.9 KiB (0%)
  535. Language : Ukrainian
  536. Default : No
  537. Forced : No

  538. Text #41
  539. ID : 43
  540. Format : UTF-8
  541. Codec ID : S_TEXT/UTF8
  542. Codec ID/Info : UTF-8 Plain Text
  543. Duration : 31 min 5 s
  544. Bit rate : 51 b/s
  545. Count of elements : 223
  546. Stream size : 11.7 KiB (0%)
  547. Language : Vietnamese
  548. Default : No
  549. Forced : No

  550. Text #42
  551. ID : 44
  552. Format : UTF-8
  553. Codec ID : S_TEXT/UTF8
  554. Codec ID/Info : UTF-8 Plain Text
  555. Duration : 31 min 5 s
  556. Bit rate : 36 b/s
  557. Count of elements : 223
  558. Stream size : 8.25 KiB (0%)
  559. Title : Cantonese
  560. Language : Chinese
  561. Default : No
  562. Forced : No
复制代码

小小世界4k Tiny.World.S01.2160p.ATVP.WEBRip.DDP5.1.Atmos.x265-4k电视剧纪录片下载

小小世界4k Tiny.World.S01.2160p.ATVP.WEBRip.DDP5.1.Atmos.x265【35.36 GB】
小小世界4k Tiny.World.S01.2160p.ATVP.WEBRip.DDP5.1.Atmos.x265-NTb[rartv].torrent
(89.36 KB)
回复

使用道具 举报

发烧友评论7

倒序浏览
speedog 发表于 9 小时前 | 显示全部楼层
好像评分很高哦,感分享
回复 支持 反对

使用道具 举报

xingyun 发表于 2020-10-20 11:29:30 | 显示全部楼层
非常感谢楼主分享
回复 支持 反对

使用道具 举报

AXLCHOW 发表于 2020-10-12 19:37:09 | 显示全部楼层
谢谢楼主分享,不错的纪录片!
回复 支持 反对

使用道具 举报

您需要登录后才可以回帖 登录 | 立即注册

本版积分规则

在线客服

在线客服

服务时间 9:00—18:00

返回顶部

关注微信公众号第一时间推送精彩

官方微信

手机访问

Hao4K影音

专注4k家庭影音,提供家庭影音社区,家庭影音器材库,影音问答平台,影音商城,服务千万家庭影音用户。

本站内容部分由用户自主分享和转载自互联网,转载目的在于传递更多信息,并不代表本网赞同其观点和对其真实性负责。

如有侵权、违反国家法律政策行为,请联系我们,我们会第一时间及时清除和处理!

举报反馈邮箱:admin@hao4k.cn

Copyright  2019-2020  Hao4K影音粤公网安备 44030302001429号    ( 粤ICP备18155646号-1 )|网站地图