专注4K家庭影音, 服务千万家庭影音发烧友!

[美剧] 宕机警察4k Code.404.S01.2160p.STAN.WEBRip.DDP5.1.x265-4k美剧下载

大红色 发表于 2020-10-9 15:41:32 | 显示全部楼层
电视剧频道
电视剧封面:
电视剧名: 宕机警察4k
年  代: 2020  
国  家: 美国
类  别: 喜剧 
语  言: 英语
字  幕: 英文原版
上映日期: 2020-04-29
文件格式: mkv    
视频效果: 4K(3840x2160)    
资源大小: 15.02 GB
片  长: 30 分钟
导  演: Al Campbell
剧情简介: 背景设置在近未来,主角是高级督察John Major及Roy Carver(Daniel Mays及Stephen Graham饰 );John及Roy是队中的灭罪精英拍档,但当一次卧底任务出错并造成John殉职后,警队因认为他是不可或缺的重要「资产」,于是决定把John的意识转移到一个实验性人工智能项目,使主角复活过来。
  问题是,John Major 2.0虽然看似原版货,但其实在意识转移过程中漏失了不少东西,现在他的傲慢举动及过份热心的态度仍在,但破案直觉却通通丢掉了。
出错警察 / 代码404/宕机警察4k Code.404.S01.2160p.STAN.WEBRip.DDP5.1.x265-4k美剧信息
  1. Video
  2. ID : 1
  3. Format : HEVC
  4. Format/Info : High Efficiency Video Coding
  5. Format profile : Main@L5@High
  6. Codec ID : V_MPEGH/ISO/HEVC
  7. Duration : 25 min 25 s
  8. Bit rate : 14.9 Mb/s
  9. Width : 3 840 pixels
  10. Height : 2 160 pixels
  11. Display aspect ratio : 16:9
  12. Frame rate mode : Constant
  13. Frame rate : 25.000 FPS
  14. Color space : YUV
  15. Chroma subsampling : 4:2:0
  16. Bit depth : 8 bits
  17. Bits/(Pixel*Frame) : 0.072
  18. Stream size : 2.65 GiB (97%)
  19. Default : Yes
  20. Forced : No
  21. Color range : Limited
  22. Color primaries : BT.709
  23. Transfer characteristics : BT.709
  24. Matrix coefficients : BT.709

  25. Audio
  26. ID : 2
  27. Format : E-AC-3
  28. Format/Info : Enhanced AC-3
  29. Commercial name : Dolby Digital Plus
  30. Codec ID : A_EAC3
  31. Duration : 25 min 25 s
  32. Bit rate mode : Constant
  33. Bit rate : 384 kb/s
  34. Channel(s) : 6 channels
  35. Channel layout : L R C LFE Ls Rs
  36. Sampling rate : 48.0 kHz
  37. Frame rate : 31.250 FPS (1536 SPF)
  38. Compression mode : Lossy
  39. Stream size : 69.9 MiB (3%)
  40. Language : English
  41. Service kind : Complete Main
  42. Default : Yes
  43. Forced : No

  44. Text
  45. ID : 3
  46. Format : UTF-8
  47. Codec ID : S_TEXT/UTF8
  48. Codec ID/Info : UTF-8 Plain Text
  49. Duration : 25 min 6 s
  50. Bit rate : 88 b/s
  51. Count of elements : 557
  52. Stream size : 16.4 KiB (0%)
  53. Title : English (SDH)
  54. Language : English
  55. Default : No
  56. Forced : No
复制代码

出错警察 / 代码404/宕机警察4k Code.404.S01.2160p.STAN.WEBRip.DDP5.1.x265-4k美剧下载

宕机警察4k Code.404.S01.2160p.STAN.WEBRip.DDP5.1.x265【15.02 GB】
[Hao4k]宕机警察4k Code.404.S01.2160p.STAN.WEBRip.DDP5.1.x265-TOMMY[rartv].torrent
(76.1 KB)
回复

使用道具 举报

发烧友评论1

倒序浏览
nicduke 发表于 4 天前 | 显示全部楼层
可惜没有字幕
回复 支持 反对

使用道具 举报

您需要登录后才可以回帖 登录 | 立即注册

本版积分规则

在线客服

在线客服

服务时间 9:00—18:00

返回顶部

关注微信公众号第一时间推送精彩

官方微信

手机访问

Hao4K影音

专注4k家庭影音,提供家庭影音社区,家庭影音器材库,影音问答平台,影音商城,服务千万家庭影音用户。

本站内容部分由用户自主分享和转载自互联网,转载目的在于传递更多信息,并不代表本网赞同其观点和对其真实性负责。

如有侵权、违反国家法律政策行为,请联系我们,我们会第一时间及时清除和处理!

举报反馈邮箱:admin@hao4k.cn

Copyright  2019-2020  Hao4K影音粤公网安备 44030302001429号    ( 粤ICP备18155646号-1 )|网站地图