专注4K家庭影音, 服务千万家庭影音发烧友!

[美剧] 去他妈的世界 第二季4k The.End.of.the.Fucking.World.S02.2160p.NF.WEB-DL.x265.10bit.HDR.DDP5.1.Atmos-4k美剧下载

大红色 发表于 2020-10-9 15:57:45 | 显示全部楼层
电视剧频道
电视剧封面:
电视剧名: 去他妈的世界 第二季4k
年  代: 2019  
国  家: 美国
类  别: 冒险 剧情 喜剧 爱情 
语  言: 英语
字  幕: 英文原版
上映日期: 2019-11-05
文件格式:  
视频效果: 4K(3840x2160)    
资源大小: 19.95 GB
片  长: 24 分钟
导  演: 戴斯特尼·埃卡拉加 / 露西·福布斯
剧情简介: 阿莉莎(杰西卡·巴登饰,《龙虾》)仍在应对第一季中各种事件带来的影响。第二季中添加了新人物邦妮,由荣获英国独立电影奖 (BIFA) 的娜奥米·阿基(《麦克白夫人》和即将上映的《星球大战 9:天行者崛起》)饰演。邦妮是一个有着复杂过往的局外人,并与阿莉莎有着神秘的联系。
  英国编剧查理·科维尔回归,为《这个破世界的末日》续写精彩。本剧改编自查尔斯·福斯曼荣获奖项的同名漫画书系列。原创歌曲和配乐将再次由格拉翰姆·考可森操刀。英国导演露西·福布斯(《In My Skin》)和德斯蒂尼·埃卡拉戛(《得寸进尺》)分别执导了第一部分和第二部分。
  该剧集由 Clerkenwell Films 和 Dominic Buchanan Productions 制作。由默里·弗格森、埃德·麦克唐纳、安迪·贝克、多米尼克·布坎南、乔纳森·恩特威斯尔和查理·科维尔担任监制,珍妮·弗雷恩担任制片人。《这个破世界的末日》由 Netflix 和 Channel 4 联合出品。
这个破世界的末日 / X 你的世界末日(台) / 去他妈的世界 / 去他的世界 / 末了个日 / The End of The Fucking World/去他妈的世界 第二季4k  The.End.of.the.Fucking.World.S02.2160p.NF.WEB-DL.x265.10bit.HDR.DDP5.1.Atmos-4k美剧信息
  1. Video
  2. ID : 1
  3. Format : HEVC
  4. Format/Info : High Efficiency Video Coding
  5. Format profile : Main 10@L5@Main
  6. HDR format : SMPTE ST 2086, HDR10 compatible
  7. Codec ID : V_MPEGH/ISO/HEVC
  8. Duration : 24 min 30 s
  9. Bit rate : 15.7 Mb/s
  10. Width : 3 840 pixels
  11. Height : 2 160 pixels
  12. Display aspect ratio : 16:9
  13. Frame rate mode : Constant
  14. Frame rate : 25.000 FPS
  15. Color space : YUV
  16. Chroma subsampling : 4:2:0 (Type 2)
  17. Bit depth : 10 bits
  18. Bits/(Pixel*Frame) : 0.076
  19. Stream size : 2.69 GiB (95%)
  20. Default : Yes
  21. Forced : No
  22. Color range : Limited
  23. Color primaries : BT.2020
  24. Transfer characteristics : PQ
  25. Matrix coefficients : BT.2020 non-constant
  26. Mastering display color primaries : Display P3
  27. Mastering display luminance : min: 0.0050 cd/m2, max: 4000 cd/m2
  28. Maximum Content Light Level : 1367 cd/m2
  29. Maximum Frame-Average Light Level : 145 cd/m2

  30. Audio
  31. ID : 2
  32. Format : E-AC-3 JOC
  33. Format/Info : Enhanced AC-3 with Joint Object Coding
  34. Commercial name : Dolby Digital Plus with Dolby Atmos
  35. Codec ID : A_EAC3
  36. Duration : 25 min 4 s
  37. Bit rate mode : Constant
  38. Bit rate : 768 kb/s
  39. Channel(s) : 6 channels
  40. Channel layout : L R C LFE Ls Rs
  41. Sampling rate : 48.0 kHz
  42. Frame rate : 31.250 FPS (1536 SPF)
  43. Compression mode : Lossy
  44. Stream size : 138 MiB (5%)
  45. Title : English
  46. Language : English
  47. Service kind : Complete Main
  48. Default : No
  49. Forced : No
  50. Complexity index : 16
  51. Number of dynamic objects : 15
  52. Bed channel count : 1 channel
  53. Bed channel configuration : LFE

  54. Text #1
  55. ID : 3
  56. Format : UTF-8
  57. Codec ID : S_TEXT/UTF8
  58. Codec ID/Info : UTF-8 Plain Text
  59. Duration : 24 min 2 s
  60. Bit rate : 71 b/s
  61. Count of elements : 346
  62. Stream size : 12.5 KiB (0%)
  63. Title : English
  64. Language : English
  65. Default : No
  66. Forced : No

  67. Text #2
  68. ID : 4
  69. Format : UTF-8
  70. Codec ID : S_TEXT/UTF8
  71. Codec ID/Info : UTF-8 Plain Text
  72. Duration : 24 min 15 s
  73. Bit rate : 57 b/s
  74. Count of elements : 244
  75. Stream size : 10.3 KiB (0%)
  76. Title : Arabic
  77. Language : Arabic
  78. Default : No
  79. Forced : No

  80. Text #3
  81. ID : 5
  82. Format : UTF-8
  83. Codec ID : S_TEXT/UTF8
  84. Codec ID/Info : UTF-8 Plain Text
  85. Duration : 24 min 15 s
  86. Bit rate : 32 b/s
  87. Count of elements : 239
  88. Stream size : 5.75 KiB (0%)
  89. Title : Portuguese
  90. Language : Portuguese
  91. Default : No
  92. Forced : No

  93. Text #4
  94. ID : 6
  95. Format : UTF-8
  96. Codec ID : S_TEXT/UTF8
  97. Codec ID/Info : UTF-8 Plain Text
  98. Duration : 24 min 15 s
  99. Bit rate : 34 b/s
  100. Count of elements : 239
  101. Stream size : 6.11 KiB (0%)
  102. Title : Brazilian
  103. Language : Portuguese
  104. Default : No
  105. Forced : No

  106. Text #5
  107. ID : 7
  108. Format : UTF-8
  109. Codec ID : S_TEXT/UTF8
  110. Codec ID/Info : UTF-8 Plain Text
  111. Duration : 24 min 15 s
  112. Bit rate : 32 b/s
  113. Count of elements : 245
  114. Stream size : 5.77 KiB (0%)
  115. Title : Simplified
  116. Language : Chinese
  117. Default : No
  118. Forced : No

  119. Text #6
  120. ID : 8
  121. Format : UTF-8
  122. Codec ID : S_TEXT/UTF8
  123. Codec ID/Info : UTF-8 Plain Text
  124. Duration : 24 min 15 s
  125. Bit rate : 33 b/s
  126. Count of elements : 239
  127. Stream size : 5.91 KiB (0%)
  128. Title : Traditional
  129. Language : Chinese
  130. Default : No
  131. Forced : No

  132. Text #7
  133. ID : 9
  134. Format : UTF-8
  135. Codec ID : S_TEXT/UTF8
  136. Codec ID/Info : UTF-8 Plain Text
  137. Duration : 24 min 18 s
  138. Bit rate : 31 b/s
  139. Count of elements : 235
  140. Stream size : 5.63 KiB (0%)
  141. Title : Czech
  142. Language : Czech
  143. Default : No
  144. Forced : No

  145. Text #8
  146. ID : 10
  147. Format : UTF-8
  148. Codec ID : S_TEXT/UTF8
  149. Codec ID/Info : UTF-8 Plain Text
  150. Duration : 24 min 15 s
  151. Bit rate : 31 b/s
  152. Count of elements : 227
  153. Stream size : 5.59 KiB (0%)
  154. Title : Danish
  155. Language : Danish
  156. Default : No
  157. Forced : No

  158. Text #9
  159. ID : 11
  160. Format : UTF-8
  161. Codec ID : S_TEXT/UTF8
  162. Codec ID/Info : UTF-8 Plain Text
  163. Duration : 24 min 15 s
  164. Bit rate : 27 b/s
  165. Count of elements : 219
  166. Stream size : 4.81 KiB (0%)
  167. Title : Dutch
  168. Language : Dutch
  169. Default : No
  170. Forced : No

  171. Text #10
  172. ID : 12
  173. Format : UTF-8
  174. Codec ID : S_TEXT/UTF8
  175. Codec ID/Info : UTF-8 Plain Text
  176. Duration : 24 min 12 s
  177. Bit rate : 32 b/s
  178. Count of elements : 234
  179. Stream size : 5.73 KiB (0%)
  180. Title : Castilian
  181. Language : Spanish
  182. Default : No
  183. Forced : No

  184. Text #11
  185. ID : 13
  186. Format : UTF-8
  187. Codec ID : S_TEXT/UTF8
  188. Codec ID/Info : UTF-8 Plain Text
  189. Duration : 24 min 15 s
  190. Bit rate : 33 b/s
  191. Count of elements : 240
  192. Stream size : 6.02 KiB (0%)
  193. Title : Spanish
  194. Language : Spanish
  195. Default : No
  196. Forced : No

  197. Text #12
  198. ID : 14
  199. Format : UTF-8
  200. Codec ID : S_TEXT/UTF8
  201. Codec ID/Info : UTF-8 Plain Text
  202. Duration : 24 min 15 s
  203. Bit rate : 33 b/s
  204. Count of elements : 240
  205. Stream size : 6.02 KiB (0%)
  206. Title : Latin America
  207. Language : Spanish
  208. Default : No
  209. Forced : No

  210. Text #13
  211. ID : 15
  212. Format : UTF-8
  213. Codec ID : S_TEXT/UTF8
  214. Codec ID/Info : UTF-8 Plain Text
  215. Duration : 24 min 15 s
  216. Bit rate : 33 b/s
  217. Count of elements : 232
  218. Stream size : 5.93 KiB (0%)
  219. Title : Finnish
  220. Language : Finnish
  221. Default : No
  222. Forced : No

  223. Text #14
  224. ID : 16
  225. Format : UTF-8
  226. Codec ID : S_TEXT/UTF8
  227. Codec ID/Info : UTF-8 Plain Text
  228. Duration : 24 min 15 s
  229. Bit rate : 32 b/s
  230. Count of elements : 237
  231. Stream size : 5.76 KiB (0%)
  232. Title : French
  233. Language : French
  234. Default : No
  235. Forced : No

  236. Text #15
  237. ID : 17
  238. Format : UTF-8
  239. Codec ID : S_TEXT/UTF8
  240. Codec ID/Info : UTF-8 Plain Text
  241. Duration : 24 min 15 s
  242. Bit rate : 33 b/s
  243. Count of elements : 234
  244. Stream size : 5.90 KiB (0%)
  245. Title : German
  246. Language : German
  247. Default : No
  248. Forced : No

  249. Text #16
  250. ID : 18
  251. Format : UTF-8
  252. Codec ID : S_TEXT/UTF8
  253. Codec ID/Info : UTF-8 Plain Text
  254. Duration : 24 min 12 s
  255. Bit rate : 55 b/s
  256. Count of elements : 245
  257. Stream size : 9.85 KiB (0%)
  258. Title : Greek
  259. Language : Greek
  260. Default : No
  261. Forced : No

  262. Text #17
  263. ID : 19
  264. Format : UTF-8
  265. Codec ID : S_TEXT/UTF8
  266. Codec ID/Info : UTF-8 Plain Text
  267. Duration : 24 min 17 s
  268. Bit rate : 53 b/s
  269. Count of elements : 236
  270. Stream size : 9.47 KiB (0%)
  271. Title : Hebrew
  272. Language : Hebrew
  273. Default : No
  274. Forced : No

  275. Text #18
  276. ID : 20
  277. Format : UTF-8
  278. Codec ID : S_TEXT/UTF8
  279. Codec ID/Info : UTF-8 Plain Text
  280. Duration : 24 min 15 s
  281. Bit rate : 31 b/s
  282. Count of elements : 236
  283. Stream size : 5.65 KiB (0%)
  284. Title : Hungarian
  285. Language : Hungarian
  286. Default : No
  287. Forced : No

  288. Text #19
  289. ID : 21
  290. Format : UTF-8
  291. Codec ID : S_TEXT/UTF8
  292. Codec ID/Info : UTF-8 Plain Text
  293. Duration : 24 min 15 s
  294. Bit rate : 33 b/s
  295. Count of elements : 237
  296. Stream size : 5.94 KiB (0%)
  297. Title : Indonesian
  298. Language : Indonesian
  299. Default : No
  300. Forced : No

  301. Text #20
  302. ID : 22
  303. Format : UTF-8
  304. Codec ID : S_TEXT/UTF8
  305. Codec ID/Info : UTF-8 Plain Text
  306. Duration : 24 min 15 s
  307. Bit rate : 30 b/s
  308. Count of elements : 240
  309. Stream size : 5.50 KiB (0%)
  310. Title : Italian
  311. Language : Italian
  312. Default : No
  313. Forced : No

  314. Text #21
  315. ID : 23
  316. Format : UTF-8
  317. Codec ID : S_TEXT/UTF8
  318. Codec ID/Info : UTF-8 Plain Text
  319. Duration : 24 min 15 s
  320. Bit rate : 31 b/s
  321. Count of elements : 249
  322. Stream size : 5.67 KiB (0%)
  323. Title : Japanese
  324. Language : Japanese
  325. Default : No
  326. Forced : No

  327. Text #22
  328. ID : 24
  329. Format : UTF-8
  330. Codec ID : S_TEXT/UTF8
  331. Codec ID/Info : UTF-8 Plain Text
  332. Duration : 24 min 15 s
  333. Bit rate : 41 b/s
  334. Count of elements : 239
  335. Stream size : 7.39 KiB (0%)
  336. Title : Korean
  337. Language : Korean
  338. Default : No
  339. Forced : No

  340. Text #23
  341. ID : 25
  342. Format : UTF-8
  343. Codec ID : S_TEXT/UTF8
  344. Codec ID/Info : UTF-8 Plain Text
  345. Duration : 24 min 15 s
  346. Bit rate : 35 b/s
  347. Count of elements : 183
  348. Stream size : 6.27 KiB (0%)
  349. Title : Norwegian Bokmal
  350. Language : Norwegian Bokmal
  351. Default : No
  352. Forced : No

  353. Text #24
  354. ID : 26
  355. Format : UTF-8
  356. Codec ID : S_TEXT/UTF8
  357. Codec ID/Info : UTF-8 Plain Text
  358. Duration : 24 min 15 s
  359. Bit rate : 29 b/s
  360. Count of elements : 231
  361. Stream size : 5.26 KiB (0%)
  362. Title : Polish
  363. Language : Polish
  364. Default : No
  365. Forced : No

  366. Text #25
  367. ID : 27
  368. Format : UTF-8
  369. Codec ID : S_TEXT/UTF8
  370. Codec ID/Info : UTF-8 Plain Text
  371. Duration : 24 min 15 s
  372. Bit rate : 36 b/s
  373. Count of elements : 233
  374. Stream size : 6.50 KiB (0%)
  375. Title : Romanian
  376. Language : Romanian
  377. Default : No
  378. Forced : No

  379. Text #26
  380. ID : 28
  381. Format : UTF-8
  382. Codec ID : S_TEXT/UTF8
  383. Codec ID/Info : UTF-8 Plain Text
  384. Duration : 24 min 15 s
  385. Bit rate : 53 b/s
  386. Count of elements : 243
  387. Stream size : 9.58 KiB (0%)
  388. Title : Russian
  389. Language : Russian
  390. Default : No
  391. Forced : No

  392. Text #27
  393. ID : 29
  394. Format : UTF-8
  395. Codec ID : S_TEXT/UTF8
  396. Codec ID/Info : UTF-8 Plain Text
  397. Duration : 24 min 15 s
  398. Bit rate : 32 b/s
  399. Count of elements : 234
  400. Stream size : 5.79 KiB (0%)
  401. Title : Swedish
  402. Language : Swedish
  403. Default : No
  404. Forced : No

  405. Text #28
  406. ID : 30
  407. Format : UTF-8
  408. Codec ID : S_TEXT/UTF8
  409. Codec ID/Info : UTF-8 Plain Text
  410. Duration : 24 min 15 s
  411. Bit rate : 82 b/s
  412. Count of elements : 239
  413. Stream size : 14.6 KiB (0%)
  414. Title : Thai
  415. Language : Thai
  416. Default : No
  417. Forced : No

  418. Text #29
  419. ID : 31
  420. Format : UTF-8
  421. Codec ID : S_TEXT/UTF8
  422. Codec ID/Info : UTF-8 Plain Text
  423. Duration : 24 min 15 s
  424. Bit rate : 33 b/s
  425. Count of elements : 229
  426. Stream size : 5.91 KiB (0%)
  427. Title : Turkish
  428. Language : Turkish
  429. Default : No
  430. Forced : No

  431. Text #30
  432. ID : 32
  433. Format : UTF-8
  434. Codec ID : S_TEXT/UTF8
  435. Codec ID/Info : UTF-8 Plain Text
  436. Duration : 24 min 15 s
  437. Bit rate : 49 b/s
  438. Count of elements : 242
  439. Stream size : 8.85 KiB (0%)
  440. Title : Vietnamese
  441. Language : Vietnamese
  442. Default : No
  443. Forced : No
复制代码

这个破世界的末日 / X 你的世界末日(台) / 去他妈的世界 / 去他的世界 / 末了个日 / The End of The Fucking World/去他妈的世界 第二季4k  The.End.of.the.Fucking.World.S02.2160p.NF.WEB-DL.x265.10bit.HDR.DDP5.1.Atmos-4k美剧下载

去他妈的世界 第二季4k  The.End.of.the.Fucking.World.S02.2160p.NF.WEB-DL.x265.10bit.HDR.DDP5.1.Atmos【19.95 GB】
去他妈的世界 第二季4k The.End.of.the.Fucking.World.S02.2160p.NF.WEB-DL.x265.10bi.torrent
(101.14 KB)
回复

使用道具 举报

发烧友评论1

倒序浏览
HWyt 发表于 2020-10-14 19:12:42 | 显示全部楼层
The Fucking World
cool
回复 支持 反对

使用道具 举报

您需要登录后才可以回帖 登录 | 立即注册

本版积分规则

在线客服

在线客服

服务时间 9:00—18:00

返回顶部

关注微信公众号第一时间推送精彩

官方微信

手机访问

Hao4K影音

专注4k家庭影音,提供家庭影音社区,家庭影音器材库,影音问答平台,影音商城,服务千万家庭影音用户。

本站内容部分由用户自主分享和转载自互联网,转载目的在于传递更多信息,并不代表本网赞同其观点和对其真实性负责。

如有侵权、违反国家法律政策行为,请联系我们,我们会第一时间及时清除和处理!

举报反馈邮箱:admin@hao4k.cn

Copyright  2019-2020  Hao4K影音粤公网安备 44030302001429号    ( 粤ICP备18155646号-1 )|网站地图