专注4K家庭影音, 服务千万家庭影音发烧友!

[待验证4K资源] 鬼玩人3:魔界英豪4k Army Of Darkness 1992 CE 2160p-4k电影下载

碧池 发表于 2020-10-9 18:00:30 | 显示全部楼层
电影频道
电影封面:
片  名: 鬼玩人3:魔界英豪4k
电影分类: 恐怖 喜剧 
国  家: 美国 
年  代: 90年代
分 辨 率: 4K(3840x2160)
电影格式: MKV|REMUX 
画质标准: 其他 
音质编码: 其他AAC 
电影声道: 5.1声道 
帧数/FPS: 23.976 FPS
电影语言:  
资源大小: 4.4 GB
导  演: 山姆·雷米
豆瓣评分: 6.9 分
中文字幕: -
剧情简介: 美国青年艾许(布鲁斯•坎贝尔 Bruce Campbell 饰)在和女友琳达(布丽切特•方达 Bridget Fonda 饰)度假时,偶然发现一本《死亡之书》。书中记载各种神秘的丧葬风俗以及招魂仪式,更为诡异恐怖的是,这本不应该存在于人间的书具有十分强大和邪恶的魔力。为与之斗争,艾许失去了女友和自己的右手,但最后还是体力不支,被《死亡之书》带到600年前的中世纪。他奇怪的穿着一度被骑士们当作间谍抓起来,经过一番波折,艾许决定帮国王打败《死亡之书》幻化出来的怪兽,这也是他回到现代社会的唯一办法……
  本片荣获1993年布鲁塞尔奇幻电影节金鸦奖、1993年葡萄牙奇幻电影节影评人奖、1994年美国科幻恐怖电影学院土星奖最佳恐怖片。
Army of Darkness / 人玩鬼3:魔界英豪 / 黑暗军团/鬼玩人3:魔界英豪4k Army Of Darkness 1992 CE 2160p BluRay x265 HEVC AI 10bit AAC 5.1-4k电影信息
  1. Video
  2. ID : 1
  3. Format : HEVC
  4. Format/Info : High Efficiency Video Coding
  5. Codec ID : V_MPEGH/ISO/HEVC
  6. Duration : 1 h 36 min
  7. Bit rate : 6 001 kb/s
  8. Width : 3 840 pixels
  9. Height : 2 160 pixels
  10. Display aspect ratio : 16:9
  11. Frame rate mode : Constant
  12. Frame rate : 23.976 (24000/1001) FPS
  13. Color space : YUV
  14. Chroma subsampling : 4:2:0
  15. Bit depth : 10 bits
  16. Bits/(Pixel*Frame) : 0.030
  17. Stream size : 4.04 GiB (92%)
  18. Writing library : x265 3.2+9-971180b100f8:[Windows][GCC 9.2.0][64 bit] 10bit
  19. Encoding settings : cpuid=1111039 / frame-threads=4 / numa-pools=16 / wpp / no-pmode / no-pme / no-psnr / ssim / log-level=2 / input-csp=1 / input-res=3840x2160 / interlace=0 / total-frames=138678 / level-idc=0 / high-tier=1 / uhd-bd=0 / ref=4 / no-allow-non-conformance / no-repeat-headers / annexb / no-aud / no-hrd / info / hash=0 / no-temporal-layers / open-gop / min-keyint=23 / keyint=250 / gop-lookahead=0 / bframes=8 / b-adapt=2 / b-pyramid / bframe-bias=40 / rc-lookahead=80 / lookahead-slices=4 / scenecut=40 / radl=0 / no-splice / no-intra-refresh / ctu=64 / min-cu-size=8 / rect / no-amp / max-tu-size=32 / tu-inter-depth=1 / tu-intra-depth=1 / limit-tu=0 / rdoq-level=2 / dynamic-rd=0.00 / ssim-rd / signhide / no-tskip / nr-intra=0 / nr-inter=0 / constrained-intra / strong-intra-smoothing / max-merge=3 / limit-refs=3 / limit-modes / me=3 / subme=3 / merange=57 / temporal-mvp / no-frame-dup / no-hme / weightp / no-weightb / no-analyze-src-pics / deblock=0:0 / sao / no-sao-non-deblock / rd=4 / selective-sao=4 / early-skip / rskip / no-fast-intra / no-tskip-fast / no-cu-lossless / no-b-intra / splitrd-skip / rdpenalty=0 / psy-rd=3.50 / psy-rdoq=2.50 / no-rd-refine / no-lossless / cbqpoffs=0 / crqpoffs=0 / rc=abr / bitrate=6000 / qcomp=0.60 / qpstep=4 / stats-write=0 / stats-read=2 / cplxblur=20.0 / qblur=0.5 / ipratio=1.40 / pbratio=1.30 / aq-mode=3 / aq-strength=0.40 / cutree / zone-count=0 / no-strict-cbr / qg-size=32 / no-rc-grain / qpmax=69 / qpmin=0 / no-const-vbv / sar=0 / overscan=0 / videoformat=5 / range=0 / colorprim=2 / transfer=2 / colormatrix=2 / chromaloc=0 / display-window=0 / cll=0,0 / min-luma=0 / max-luma=1023 / log2-max-poc-lsb=8 / vui-timing-info / vui-hrd-info / slices=1 / no-opt-qp-pps / no-opt-ref-list-length-pps / multi-pass-opt-rps / scenecut-bias=0.05 / no-opt-cu-delta-qp / no-aq-motion / no-hdr / no-hdr-opt / no-dhdr10-opt / no-idr-recovery-sei / analysis-load / analysis-reuse-level=10 / scale-factor=0 / refine-intra=0 / refine-inter=0 / refine-mv=1 / refine-ctu-distortion=0 / limit-sao / ctu-info=0 / no-lowpass-dct / refine-analysis-type=0 / copy-pic=1 / max-ausize-factor=1.0 / no-dynamic-refine / no-single-sei / no-hevc-aq / no-svt / no-field / qp-adaptation-range=1.00
  20. Default : Yes
  21. Forced : No

  22. Audio #1
  23. ID : 2
  24. Format : AAC
  25. Format/Info : Advanced Audio Codec
  26. Format profile : LC
  27. Codec ID : A_AAC
  28. Duration : 1 h 36 min
  29. Bit rate : 440 kb/s
  30. Channel(s) : 6 channels
  31. Channel positions : Front: L C R, Side: L R, LFE
  32. Sampling rate : 48.0 kHz
  33. Frame rate : 46.875 FPS (1024 spf)
  34. Compression mode : Lossy
  35. Delay relative to video : 9 ms
  36. Stream size : 303 MiB (7%)
  37. Language : English
  38. Default : No
  39. Forced : No

  40. Audio #2
  41. ID : 3
  42. Format : AAC
  43. Format/Info : Advanced Audio Codec
  44. Format profile : HE-AAC / LC
  45. Codec ID : A_AAC
  46. Duration : 1 h 36 min
  47. Bit rate : 38.5 kb/s
  48. Channel(s) : 2 channels
  49. Channel positions : Front: L R
  50. Sampling rate : 48.0 kHz / 24.0 kHz
  51. Frame rate : 23.438 FPS (1024 spf)
  52. Compression mode : Lossy
  53. Delay relative to video : 31 ms
  54. Stream size : 26.5 MiB (1%)
  55. Title : Commentary
  56. Language : English
  57. Default : No
  58. Forced : No

  59. Subtitle #1
  60. ID : 4
  61. Format : PGS
  62. Muxing mode : zlib
  63. Codec ID : S_HDMV/PGS
  64. Codec ID/Info : Picture based subtitle format used on BDs/HD-DVDs
  65. Duration : 1 h 30 min
  66. Bit rate : 20.0 kb/s
  67. Count of elements : 1627
  68. Stream size : 12.9 MiB (0%)
  69. Title : SDH
  70. Language : English
  71. Default : No
  72. Forced : No

  73. Subtitle #2
  74. ID : 5
  75. Format : UTF-8
  76. Codec ID : S_TEXT/UTF8
  77. Codec ID/Info : UTF-8 Plain Text
  78. Duration : 1 h 30 min
  79. Bit rate : 25 b/s
  80. Count of elements : 615
  81. Stream size : 16.9 KiB (0%)
  82. Language : Danish
  83. Default : No
  84. Forced : No

  85. Subtitle #3
  86. ID : 6
  87. Format : UTF-8
  88. Codec ID : S_TEXT/UTF8
  89. Codec ID/Info : UTF-8 Plain Text
  90. Duration : 1 h 30 min
  91. Bit rate : 20 b/s
  92. Count of elements : 430
  93. Stream size : 13.6 KiB (0%)
  94. Language : Finnish
  95. Default : No
  96. Forced : No

  97. Subtitle #4
  98. ID : 7
  99. Format : UTF-8
  100. Codec ID : S_TEXT/UTF8
  101. Codec ID/Info : UTF-8 Plain Text
  102. Duration : 1 h 30 min
  103. Bit rate : 29 b/s
  104. Count of elements : 638
  105. Stream size : 19.8 KiB (0%)
  106. Language : Norwegian
  107. Default : No
  108. Forced : No

  109. Subtitle #5
  110. ID : 8
  111. Format : UTF-8
  112. Codec ID : S_TEXT/UTF8
  113. Codec ID/Info : UTF-8 Plain Text
  114. Duration : 1 h 30 min
  115. Bit rate : 22 b/s
  116. Count of elements : 429
  117. Stream size : 14.9 KiB (0%)
  118. Language : Swedish
  119. Default : No
  120. Forced : No

  121. Subtitle #6
  122. ID : 9
  123. Format : UTF-8
  124. Codec ID : S_TEXT/UTF8
  125. Codec ID/Info : UTF-8 Plain Text
  126. Duration : 1 h 30 min
  127. Bit rate : 41 b/s
  128. Count of elements : 629
  129. Stream size : 27.2 KiB (0%)
  130. Language : Arabic
  131. Default : No
  132. Forced : No

  133. Subtitle #7
  134. ID : 10
  135. Format : UTF-8
  136. Codec ID : S_TEXT/UTF8
  137. Codec ID/Info : UTF-8 Plain Text
  138. Duration : 1 h 30 min
  139. Bit rate : 47 b/s
  140. Count of elements : 643
  141. Stream size : 31.7 KiB (0%)
  142. Language : Persian
  143. Default : No
  144. Forced : No

  145. Menu
  146. 00:00:00.000 : en:It Wasn't Always Like This...(Main Titles)
  147. 00:03:14.319 : en:The Pit
  148. 00:09:24.272 : en:The Promised One (and His Boomstick)
  149. 00:19:25.414 : en:An Evil Book
  150. 00:23:13.100 : en:Ash Goes to Pieces
  151. 00:25:52.801 : en:Split Personalities
  152. 00:31:41.232 : en:Three Little Words
  153. 00:41:40.581 : en:The Snatching of Sheila
  154. 00:50:15.679 : en:The March of the Dead
  155. 00:54:57.502 : en:Death to the Mortals!
  156. 00:59:03.998 : en:Say Hello to the 21St Century!
  157. 01:01:53.376 : en:Battle of the Alter Egos
  158. 01:12:45.319 : en:Dead Again
  159. 01:23:39.848 : en:A New Kingdom
  160. 01:26:31.436 : en:The Hero From Housewares
  161. 01:30:57.743 : en:Hail to the King (End Titles)
复制代码

Army of Darkness / 人玩鬼3:魔界英豪 / 黑暗军团/鬼玩人3:魔界英豪4k Army Of Darkness 1992 CE 2160p BluRay x265 HEVC AI 10bit AAC 5.1-4k电影下载

鬼玩人3:魔界英豪4k Army Of Darkness 1992 CE 2160p BluRay x265 HEVC AI 10bit AAC 5.1【4.4 GB】
鬼玩人3:魔界英豪4k下载.txt
(114 Bytes)

评分

参与人数 1H币 +10 收起 理由
18975409816 + 10 谢谢分享!

查看全部评分

回复

使用道具 举报

发烧友评论2

倒序浏览
xiaoshuizhu 发表于 2020-10-11 08:22:15 | 显示全部楼层
这部经典,有两个结局,不知道是哪一个。
回复 支持 反对

使用道具 举报

您需要登录后才可以回帖 登录 | 立即注册

本版积分规则


0关注

17粉丝

64帖子

热门图文主题
热门主题
社区广告

在线客服

在线客服

服务时间 9:00—18:00

返回顶部

关注微信公众号第一时间推送精彩

官方微信

手机访问

Hao4K影音

专注4k家庭影音,提供家庭影音社区,家庭影音器材库,影音问答平台,影音商城,服务千万家庭影音用户。

本站内容部分由用户自主分享和转载自互联网,转载目的在于传递更多信息,并不代表本网赞同其观点和对其真实性负责。

如有侵权、违反国家法律政策行为,请联系我们,我们会第一时间及时清除和处理!

举报反馈邮箱:admin@hao4k.cn

Copyright  2019-2020  Hao4K影音粤公网安备 44030302001429号    ( 粤ICP备18155646号-1 )|网站地图