专注4K家庭影音, 服务千万家庭影音发烧友!

[待验证4K资源] 回到未来4k Back to the Future 1985 Featurettes 2160p-4k电影下载

碧池 发表于 2020-10-9 21:24:45 | 显示全部楼层
电影频道
电影封面:
片  名: 回到未来4k
电影分类: 科幻 冒险 喜剧 
国  家: 美国 
年  代: 80年代
分 辨 率: 4K(3840x2160)
电影格式: MKV|REMUX 
画质标准: 其他 
音质编码: 其他AAC 
电影声道: 5.1声道 
帧数/FPS: 46.875 FPS
电影语言: 英文原版 
资源大小: 5.9 GB
导  演: 罗伯特·泽米吉斯
豆瓣评分: 8.7 分
中文字幕: -
剧情简介: 布朗博士(克里斯托弗•洛伊德 Christopher Lloyd 饰)总是有些稀奇古怪的发明。在一次试验他发明的时光机器时,他找来了忘年交高中生马丁(迈克尔•J•福克斯 Michael J. Fox 饰)。岂料实验过程中博士被歹徒杀害了,马丁慌乱中架着时光机逃跑,回到了30年前。
  马丁遇到了30年前的父亲乔治(克利斯丁•格拉夫 Crispin Glover 饰)和母亲洛莲(莉•汤普森 Lea Thompson 饰)。马丁一边找寻30年前的布朗博士,好让自己回到未来;一边尽力撮合乔治和洛莲,以免自己在以后消失了。但乔治为人懦弱,马丁在撮合过程中弄巧成拙让洛莲爱上了自己。还有令人讨厌的贝夫从中作梗,令马丁恼怒不已。
  马丁周旋在他的双亲之间,还要尽快找到博士,想办法回到未来……
回到未来第一集/回到未来4k Back to the Future 1985 Featurettes 2160p BluRay x265 HEVC AI 10bit AAC 5.1 -4k电影信息
  1. Video
  2. ID                                       : 1
  3. Format                                   : HEVC
  4. Format/Info                              : High Efficiency Video Coding
  5. Codec ID                                 : V_MPEGH/ISO/HEVC
  6. Duration                                 : 1 h 56 min
  7. Bit rate                                 : 6 001 kb/s
  8. Width                                    : 3 840 pixels
  9. Height                                   : 2 080 pixels
  10. Display aspect ratio                     : 1.85:1
  11. Frame rate mode                          : Constant
  12. Frame rate                               : 23.976 (24000/1001) FPS
  13. Color space                              : YUV
  14. Chroma subsampling                       : 4:2:0
  15. Bit depth                                : 10 bits
  16. Bits/(Pixel*Frame)                       : 0.031
  17. Stream size                              : 4.86 GiB (91%)
  18. Writing library                          : x265 3.2+9-971180b100f8:[Windows][GCC 9.2.0][64 bit] 10bit
  19. Encoding settings                        : cpuid=1111039 / frame-threads=4 / numa-pools=16 / wpp / no-pmode / no-pme / no-psnr / ssim / log-level=2 / input-csp=1 / input-res=3840x2080 / interlace=0 / total-frames=166897 / level-idc=0 / high-tier=1 / uhd-bd=0 / ref=4 / no-allow-non-conformance / no-repeat-headers / annexb / no-aud / no-hrd / info / hash=0 / no-temporal-layers / open-gop / min-keyint=23 / keyint=250 / gop-lookahead=0 / bframes=8 / b-adapt=2 / b-pyramid / bframe-bias=40 / rc-lookahead=80 / lookahead-slices=4 / scenecut=40 / radl=0 / no-splice / no-intra-refresh / ctu=64 / min-cu-size=8 / rect / no-amp / max-tu-size=32 / tu-inter-depth=1 / tu-intra-depth=1 / limit-tu=0 / rdoq-level=2 / dynamic-rd=0.00 / ssim-rd / signhide / no-tskip / nr-intra=0 / nr-inter=0 / constrained-intra / strong-intra-smoothing / max-merge=3 / limit-refs=3 / limit-modes / me=3 / subme=3 / merange=57 / temporal-mvp / no-frame-dup / no-hme / weightp / no-weightb / no-analyze-src-pics / deblock=0:0 / sao / no-sao-non-deblock / rd=4 / selective-sao=4 / early-skip / rskip / no-fast-intra / no-tskip-fast / no-cu-lossless / no-b-intra / splitrd-skip / rdpenalty=0 / psy-rd=3.50 / psy-rdoq=2.50 / no-rd-refine / no-lossless / cbqpoffs=0 / crqpoffs=0 / rc=abr / bitrate=6000 / qcomp=0.60 / qpstep=4 / stats-write=0 / stats-read=2 / cplxblur=20.0 / qblur=0.5 / ipratio=1.40 / pbratio=1.30 / aq-mode=3 / aq-strength=0.40 / cutree / zone-count=0 / no-strict-cbr / qg-size=32 / no-rc-grain / qpmax=69 / qpmin=0 / no-const-vbv / sar=0 / overscan=0 / videoformat=5 / range=0 / colorprim=2 / transfer=2 / colormatrix=2 / chromaloc=0 / display-window=0 / cll=0,0 / min-luma=0 / max-luma=1023 / log2-max-poc-lsb=8 / vui-timing-info / vui-hrd-info / slices=1 / no-opt-qp-pps / no-opt-ref-list-length-pps / multi-pass-opt-rps / scenecut-bias=0.05 / no-opt-cu-delta-qp / no-aq-motion / no-hdr / no-hdr-opt / no-dhdr10-opt / no-idr-recovery-sei / analysis-load / analysis-reuse-level=10 / scale-factor=0 / refine-intra=0 / refine-inter=0 / refine-mv=1 / refine-ctu-distortion=0 / limit-sao / ctu-info=0 / no-lowpass-dct / refine-analysis-type=0 / copy-pic=1 / max-ausize-factor=1.0 / no-dynamic-refine / no-single-sei / no-hevc-aq / no-svt / no-field / qp-adaptation-range=1.00
  20. Default                                  : Yes
  21. Forced                                   : No

  22. Audio #1
  23. ID                                       : 2
  24. Format                                   : AAC
  25. Format/Info                              : Advanced Audio Codec
  26. Format profile                           : LC
  27. Codec ID                                 : A_AAC
  28. Duration                                 : 1 h 56 min
  29. Bit rate                                 : 449 kb/s
  30. Channel(s)                               : 6 channels
  31. Channel positions                        : Front: L C R, Side: L R, LFE
  32. Sampling rate                            : 48.0 kHz
  33. Frame rate                               : 46.875 FPS (1024 spf)
  34. Compression mode                         : Lossy
  35. Delay relative to video                  : 9 ms
  36. Stream size                              : 372 MiB (7%)
  37. Title                                    : Surround 5.1
  38. Language                                 : English
  39. Default                                  : No
  40. Forced                                   : No

  41. Audio #2
  42. ID                                       : 3
  43. Format                                   : AAC
  44. Format/Info                              : Advanced Audio Codec
  45. Format profile                           : HE-AAC / LC
  46. Codec ID                                 : A_AAC
  47. Duration                                 : 1 h 56 min
  48. Bit rate                                 : 40.1 kb/s
  49. Channel(s)                               : 2 channels
  50. Channel positions                        : Front: L R
  51. Sampling rate                            : 48.0 kHz / 24.0 kHz
  52. Frame rate                               : 23.438 FPS (1024 spf)
  53. Compression mode                         : Lossy
  54. Delay relative to video                  : 31 ms
  55. Stream size                              : 33.3 MiB (1%)
  56. Title                                    : Commentary
  57. Language                                 : English
  58. Default                                  : No
  59. Forced                                   : No

  60. Audio #3
  61. ID                                       : 4
  62. Format                                   : AAC
  63. Format/Info                              : Advanced Audio Codec
  64. Format profile                           : HE-AAC / LC
  65. Codec ID                                 : A_AAC
  66. Duration                                 : 1 h 56 min
  67. Bit rate                                 : 48.0 kb/s
  68. Channel(s)                               : 2 channels
  69. Channel positions                        : Front: L R
  70. Sampling rate                            : 48.0 kHz / 24.0 kHz
  71. Frame rate                               : 23.438 FPS (1024 spf)
  72. Compression mode                         : Lossy
  73. Delay relative to video                  : 31 ms
  74. Stream size                              : 39.4 MiB (1%)
  75. Title                                    : Commentary
  76. Language                                 : English
  77. Default                                  : No
  78. Forced                                   : No

  79. Subtitle #1
  80. ID                                       : 5
  81. Format                                   : PGS
  82. Muxing mode                              : zlib
  83. Codec ID                                 : S_HDMV/PGS
  84. Codec ID/Info                            : Picture based subtitle format used on BDs/HD-DVDs
  85. Duration                                 : 1 h 51 min
  86. Bit rate                                 : 42.3 kb/s
  87. Count of elements                        : 3049
  88. Stream size                              : 33.7 MiB (1%)
  89. Language                                 : English
  90. Default                                  : No
  91. Forced                                   : No

  92. Subtitle #2
  93. ID                                       : 6
  94. Format                                   : VobSub
  95. Muxing mode                              : zlib
  96. Codec ID                                 : S_VOBSUB
  97. Codec ID/Info                            : Picture based subtitle format used on DVDs
  98. Duration                                 : 1 h 50 min
  99. Bit rate                                 : 8 716 b/s
  100. Count of elements                        : 1308
  101. Stream size                              : 6.88 MiB (0%)
  102. Language                                 : Czech
  103. Default                                  : No
  104. Forced                                   : No

  105. Subtitle #3
  106. ID                                       : 7
  107. Format                                   : VobSub
  108. Muxing mode                              : zlib
  109. Codec ID                                 : S_VOBSUB
  110. Codec ID/Info                            : Picture based subtitle format used on DVDs
  111. Duration                                 : 1 h 50 min
  112. Bit rate                                 : 9 690 b/s
  113. Count of elements                        : 1309
  114. Stream size                              : 7.65 MiB (0%)
  115. Language                                 : Hungarian
  116. Default                                  : No
  117. Forced                                   : No

  118. Subtitle #4
  119. ID                                       : 8
  120. Format                                   : VobSub
  121. Muxing mode                              : zlib
  122. Codec ID                                 : S_VOBSUB
  123. Codec ID/Info                            : Picture based subtitle format used on DVDs
  124. Duration                                 : 1 h 50 min
  125. Bit rate                                 : 8 863 b/s
  126. Count of elements                        : 1306
  127. Stream size                              : 7.00 MiB (0%)
  128. Language                                 : Croatian
  129. Default                                  : No
  130. Forced                                   : No

  131. Subtitle #5
  132. ID                                       : 9
  133. Format                                   : VobSub
  134. Muxing mode                              : zlib
  135. Codec ID                                 : S_VOBSUB
  136. Codec ID/Info                            : Picture based subtitle format used on DVDs
  137. Duration                                 : 1 h 50 min
  138. Bit rate                                 : 8 553 b/s
  139. Count of elements                        : 1304
  140. Stream size                              : 6.75 MiB (0%)
  141. Language                                 : Slovenian
  142. Default                                  : No
  143. Forced                                   : No

  144. Subtitle #6
  145. ID                                       : 10
  146. Format                                   : VobSub
  147. Muxing mode                              : zlib
  148. Codec ID                                 : S_VOBSUB
  149. Codec ID/Info                            : Picture based subtitle format used on DVDs
  150. Duration                                 : 1 h 51 min
  151. Bit rate                                 : 18.6 kb/s
  152. Count of elements                        : 1695
  153. Stream size                              : 14.9 MiB (0%)
  154. Language                                 : English
  155. Default                                  : No
  156. Forced                                   : No

  157. Subtitle #7
  158. ID                                       : 11
  159. Format                                   : VobSub
  160. Muxing mode                              : zlib
  161. Codec ID                                 : S_VOBSUB
  162. Codec ID/Info                            : Picture based subtitle format used on DVDs
  163. Duration                                 : 1 h 51 min
  164. Bit rate                                 : 17.5 kb/s
  165. Count of elements                        : 1699
  166. Stream size                              : 14.0 MiB (0%)
  167. Language                                 : Russian
  168. Default                                  : No
  169. Forced                                   : No

  170. Subtitle #8
  171. ID                                       : 12
  172. Format                                   : VobSub
  173. Muxing mode                              : zlib
  174. Codec ID                                 : S_VOBSUB
  175. Codec ID/Info                            : Picture based subtitle format used on DVDs
  176. Duration                                 : 1 h 51 min
  177. Bit rate                                 : 16.8 kb/s
  178. Count of elements                        : 1633
  179. Stream size                              : 13.4 MiB (0%)
  180. Language                                 : English
  181. Default                                  : No
  182. Forced                                   : No

  183. Subtitle #9
  184. ID                                       : 13
  185. Format                                   : VobSub
  186. Muxing mode                              : zlib
  187. Codec ID                                 : S_VOBSUB
  188. Codec ID/Info                            : Picture based subtitle format used on DVDs
  189. Duration                                 : 1 h 51 min
  190. Bit rate                                 : 17.0 kb/s
  191. Count of elements                        : 1642
  192. Stream size                              : 13.6 MiB (0%)
  193. Language                                 : Russian
  194. Default                                  : No
  195. Forced                                   : No

  196. Subtitle #10
  197. ID                                       : 14
  198. Format                                   : VobSub
  199. Muxing mode                              : zlib
  200. Codec ID                                 : S_VOBSUB
  201. Codec ID/Info                            : Picture based subtitle format used on DVDs
  202. Duration                                 : 1 h 48 min
  203. Bit rate                                 : 307 b/s
  204. Count of elements                        : 44
  205. Stream size                              : 245 KiB (0%)
  206. Language                                 : Czech
  207. Default                                  : No
  208. Forced                                   : No

  209. Subtitle #11
  210. ID                                       : 15
  211. Format                                   : VobSub
  212. Muxing mode                              : zlib
  213. Codec ID                                 : S_VOBSUB
  214. Codec ID/Info                            : Picture based subtitle format used on DVDs
  215. Duration                                 : 1 h 49 min
  216. Bit rate                                 : 401 b/s
  217. Count of elements                        : 51
  218. Stream size                              : 323 KiB (0%)
  219. Language                                 : Hungarian
  220. Default                                  : No
  221. Forced                                   : No

  222. Subtitle #12
  223. ID                                       : 16
  224. Format                                   : VobSub
  225. Muxing mode                              : zlib
  226. Codec ID                                 : S_VOBSUB
  227. Codec ID/Info                            : Picture based subtitle format used on DVDs
  228. Duration                                 : 1 h 40 min
  229. Bit rate                                 : 196 b/s
  230. Count of elements                        : 22
  231. Stream size                              : 145 KiB (0%)
  232. Language                                 : Russian
  233. Default                                  : No
  234. Forced                                   : No

  235. Subtitle #13
  236. ID                                       : 17
  237. Format                                   : UTF-8
  238. Codec ID                                 : S_TEXT/UTF8
  239. Codec ID/Info                            : UTF-8 Plain Text
  240. Duration                                 : 1 h 51 min
  241. Bit rate                                 : 75 b/s
  242. Count of elements                        : 1305
  243. Stream size                              : 61.3 KiB (0%)
  244. Language                                 : Arabic
  245. Default                                  : No
  246. Forced                                   : No

  247. Subtitle #14
  248. ID                                       : 18
  249. Format                                   : UTF-8
  250. Codec ID                                 : S_TEXT/UTF8
  251. Codec ID/Info                            : UTF-8 Plain Text
  252. Duration                                 : 1 h 50 min
  253. Bit rate                                 : 49 b/s
  254. Count of elements                        : 1231
  255. Stream size                              : 40.4 KiB (0%)
  256. Language                                 : Portuguese
  257. Default                                  : No
  258. Forced                                   : No

  259. Subtitle #15
  260. ID                                       : 19
  261. Format                                   : UTF-8
  262. Codec ID                                 : S_TEXT/UTF8
  263. Codec ID/Info                            : UTF-8 Plain Text
  264. Duration                                 : 1 h 51 min
  265. Bit rate                                 : 43 b/s
  266. Count of elements                        : 1338
  267. Stream size                              : 35.3 KiB (0%)
  268. Language                                 : Chinese
  269. Default                                  : No
  270. Forced                                   : No

  271. Subtitle #16
  272. ID                                       : 20
  273. Format                                   : UTF-8
  274. Codec ID                                 : S_TEXT/UTF8
  275. Codec ID/Info                            : UTF-8 Plain Text
  276. Duration                                 : 1 h 54 min
  277. Bit rate                                 : 54 b/s
  278. Count of elements                        : 1337
  279. Stream size                              : 45.9 KiB (0%)
  280. Language                                 : Danish
  281. Default                                  : No
  282. Forced                                   : No

  283. Subtitle #17
  284. ID                                       : 21
  285. Format                                   : UTF-8
  286. Codec ID                                 : S_TEXT/UTF8
  287. Codec ID/Info                            : UTF-8 Plain Text
  288. Duration                                 : 1 h 51 min
  289. Bit rate                                 : 53 b/s
  290. Count of elements                        : 1359
  291. Stream size                              : 43.4 KiB (0%)
  292. Language                                 : Dutch
  293. Default                                  : No
  294. Forced                                   : No

  295. Subtitle #18
  296. ID                                       : 22
  297. Format                                   : UTF-8
  298. Codec ID                                 : S_TEXT/UTF8
  299. Codec ID/Info                            : UTF-8 Plain Text
  300. Duration                                 : 1 h 51 min
  301. Bit rate                                 : 92 b/s
  302. Count of elements                        : 1532
  303. Stream size                              : 75.9 KiB (0%)
  304. Language                                 : Persian
  305. Default                                  : No
  306. Forced                                   : No

  307. Subtitle #19
  308. ID                                       : 23
  309. Format                                   : UTF-8
  310. Codec ID                                 : S_TEXT/UTF8
  311. Codec ID/Info                            : UTF-8 Plain Text
  312. Duration                                 : 1 h 50 min
  313. Bit rate                                 : 65 b/s
  314. Count of elements                        : 1381
  315. Stream size                              : 53.1 KiB (0%)
  316. Language                                 : French
  317. Default                                  : No
  318. Forced                                   : No

  319. Subtitle #20
  320. ID                                       : 24
  321. Format                                   : UTF-8
  322. Codec ID                                 : S_TEXT/UTF8
  323. Codec ID/Info                            : UTF-8 Plain Text
  324. Duration                                 : 1 h 50 min
  325. Bit rate                                 : 59 b/s
  326. Count of elements                        : 1301
  327. Stream size                              : 47.8 KiB (0%)
  328. Language                                 : German
  329. Default                                  : No
  330. Forced                                   : No

  331. Subtitle #21
  332. ID                                       : 25
  333. Format                                   : UTF-8
  334. Codec ID                                 : S_TEXT/UTF8
  335. Codec ID/Info                            : UTF-8 Plain Text
  336. Duration                                 : 1 h 50 min
  337. Bit rate                                 : 95 b/s
  338. Count of elements                        : 1339
  339. Stream size                              : 77.5 KiB (0%)
  340. Language                                 : Greek
  341. Default                                  : No
  342. Forced                                   : No

  343. Subtitle #22
  344. ID                                       : 26
  345. Format                                   : UTF-8
  346. Codec ID                                 : S_TEXT/UTF8
  347. Codec ID/Info                            : UTF-8 Plain Text
  348. Duration                                 : 1 h 51 min
  349. Bit rate                                 : 80 b/s
  350. Count of elements                        : 1488
  351. Stream size                              : 66.0 KiB (0%)
  352. Language                                 : Hebrew
  353. Default                                  : No
  354. Forced                                   : No

  355. Subtitle #23
  356. ID                                       : 27
  357. Format                                   : UTF-8
  358. Codec ID                                 : S_TEXT/UTF8
  359. Codec ID/Info                            : UTF-8 Plain Text
  360. Duration                                 : 1 h 51 min
  361. Bit rate                                 : 73 b/s
  362. Count of elements                        : 1498
  363. Stream size                              : 59.7 KiB (0%)
  364. Language                                 : Vietnamese
  365. Default                                  : No
  366. Forced                                   : No

  367. Subtitle #24
  368. ID                                       : 28
  369. Format                                   : UTF-8
  370. Codec ID                                 : S_TEXT/UTF8
  371. Codec ID/Info                            : UTF-8 Plain Text
  372. Duration                                 : 1 h 51 min
  373. Bit rate                                 : 47 b/s
  374. Count of elements                        : 1296
  375. Stream size                              : 38.6 KiB (0%)
  376. Language                                 : Indonesian
  377. Default                                  : No
  378. Forced                                   : No

  379. Subtitle #25
  380. ID                                       : 29
  381. Format                                   : UTF-8
  382. Codec ID                                 : S_TEXT/UTF8
  383. Codec ID/Info                            : UTF-8 Plain Text
  384. Duration                                 : 1 h 54 min
  385. Bit rate                                 : 51 b/s
  386. Count of elements                        : 1337
  387. Stream size                              : 42.9 KiB (0%)
  388. Language                                 : Italian
  389. Default                                  : No
  390. Forced                                   : No

  391. Subtitle #26
  392. ID                                       : 30
  393. Format                                   : UTF-8
  394. Codec ID                                 : S_TEXT/UTF8
  395. Codec ID/Info                            : UTF-8 Plain Text
  396. Duration                                 : 1 h 51 min
  397. Bit rate                                 : 60 b/s
  398. Count of elements                        : 1246
  399. Stream size                              : 49.3 KiB (0%)
  400. Language                                 : Korean
  401. Default                                  : No
  402. Forced                                   : No

  403. Subtitle #27
  404. ID                                       : 31
  405. Format                                   : UTF-8
  406. Codec ID                                 : S_TEXT/UTF8
  407. Codec ID/Info                            : UTF-8 Plain Text
  408. Duration                                 : 1 h 50 min
  409. Bit rate                                 : 52 b/s
  410. Count of elements                        : 1300
  411. Stream size                              : 42.5 KiB (0%)
  412. Language                                 : Norwegian
  413. Default                                  : No
  414. Forced                                   : No

  415. Subtitle #28
  416. ID                                       : 32
  417. Format                                   : UTF-8
  418. Codec ID                                 : S_TEXT/UTF8
  419. Codec ID/Info                            : UTF-8 Plain Text
  420. Duration                                 : 1 h 50 min
  421. Bit rate                                 : 55 b/s
  422. Count of elements                        : 1301
  423. Stream size                              : 45.1 KiB (0%)
  424. Language                                 : Polish
  425. Default                                  : No
  426. Forced                                   : No

  427. Subtitle #29
  428. ID                                       : 33
  429. Format                                   : UTF-8
  430. Codec ID                                 : S_TEXT/UTF8
  431. Codec ID/Info                            : UTF-8 Plain Text
  432. Duration                                 : 1 h 50 min
  433. Bit rate                                 : 55 b/s
  434. Count of elements                        : 1337
  435. Stream size                              : 44.9 KiB (0%)
  436. Language                                 : Portuguese
  437. Default                                  : No
  438. Forced                                   : No

  439. Subtitle #30
  440. ID                                       : 34
  441. Format                                   : UTF-8
  442. Codec ID                                 : S_TEXT/UTF8
  443. Codec ID/Info                            : UTF-8 Plain Text
  444. Duration                                 : 1 h 50 min
  445. Bit rate                                 : 58 b/s
  446. Count of elements                        : 1313
  447. Stream size                              : 47.0 KiB (0%)
  448. Language                                 : Spanish
  449. Default                                  : No
  450. Forced                                   : No

  451. Subtitle #31
  452. ID                                       : 35
  453. Format                                   : UTF-8
  454. Codec ID                                 : S_TEXT/UTF8
  455. Codec ID/Info                            : UTF-8 Plain Text
  456. Duration                                 : 1 h 50 min
  457. Bit rate                                 : 51 b/s
  458. Count of elements                        : 1290
  459. Stream size                              : 41.4 KiB (0%)
  460. Language                                 : Swedish
  461. Default                                  : No
  462. Forced                                   : No

  463. Subtitle #32
  464. ID                                       : 36
  465. Format                                   : UTF-8
  466. Codec ID                                 : S_TEXT/UTF8
  467. Codec ID/Info                            : UTF-8 Plain Text
  468. Duration                                 : 1 h 51 min
  469. Bit rate                                 : 117 b/s
  470. Count of elements                        : 1300
  471. Stream size                              : 95.9 KiB (0%)
  472. Language                                 : Thai
  473. Default                                  : No
  474. Forced                                   : No

  475. Subtitle #33
  476. ID                                       : 37
  477. Format                                   : UTF-8
  478. Codec ID                                 : S_TEXT/UTF8
  479. Codec ID/Info                            : UTF-8 Plain Text
  480. Duration                                 : 1 h 50 min
  481. Bit rate                                 : 60 b/s
  482. Count of elements                        : 1304
  483. Stream size                              : 48.5 KiB (0%)
  484. Language                                 : Turkish
  485. Default                                  : No
  486. Forced                                   : No

  487. Menu
  488. 00:00:00.000                             : en:Chapter 01
  489. 00:04:13.336                             : en:Chapter 02
  490. 00:06:47.240                             : en:Chapter 03
  491. 00:11:45.246                             : en:Chapter 04
  492. 00:18:04.166                             : en:Chapter 05
  493. 00:28:12.023                             : en:Chapter 06
  494. 00:31:30.680                             : en:Chapter 07
  495. 00:38:40.443                             : en:Chapter 08
  496. 00:41:22.313                             : en:Chapter 09
  497. 00:47:53.370                             : en:Chapter 10
  498. 00:55:53.058                             : en:Chapter 11
  499. 00:58:49.859                             : en:Chapter 12
  500. 01:05:16.787                             : en:Chapter 13
  501. 01:16:40.304                             : en:Chapter 14
  502. 01:20:14.559                             : en:Chapter 15
  503. 01:27:23.238                             : en:Chapter 16
  504. 01:31:11.716                             : en:Chapter 17
  505. 01:41:40.552                             : en:Chapter 18
  506. 01:46:41.436                             : en:Chapter 19
  507. 01:51:24.135                             : en:Chapter 20
复制代码

回到未来第一集/回到未来4k Back to the Future 1985 Featurettes 2160p BluRay x265 HEVC AI 10bit AAC 5.1-4k电影下载

回到未来4k Back to the Future 1985 Featurettes 2160p BluRay x265 HEVC AI 10bit AAC 5.1【5.9 GB】
回到未来4k下载.txt
(100 Bytes)
回复

使用道具 举报

发烧友评论9

倒序浏览
BOQIJIN 发表于 2020-10-17 20:13:39 Hao4K手机版 | 显示全部楼层
画质出乎意料地好,小体积也挺好的。
回复 支持 反对

使用道具 举报

BOQIJIN 发表于 2020-10-15 18:42:18 Hao4K手机版 | 显示全部楼层
无写错吧,5.9G?
回复 支持 反对

使用道具 举报

blackhead 发表于 2020-10-11 17:26:01 | 显示全部楼层
謝謝樓主分享
回复 支持 反对

使用道具 举报

lywzj238 发表于 2020-10-10 20:09:31 | 显示全部楼层
谢谢分享好电影
回复 支持 反对

使用道具 举报

lchlxx 发表于 2020-10-10 12:08:51 | 显示全部楼层
5个多G的4K不知道效果会怎么样 先谢谢
回复 支持 反对

使用道具 举报

wzff111 发表于 2020-10-10 01:10:31 Hao4K手机版 | 显示全部楼层
看看怎么样谢谢
回复 支持 反对

使用道具 举报

您需要登录后才可以回帖 登录 | 立即注册

本版积分规则


0关注

19粉丝

68帖子

热门图文主题
热门主题
社区广告

在线客服

在线客服

服务时间 9:00—18:00

返回顶部

关注微信公众号第一时间推送精彩

官方微信

手机访问

Hao4K影音

专注4k家庭影音,提供家庭影音社区,家庭影音器材库,影音问答平台,影音商城,服务千万家庭影音用户。

本站内容部分由用户自主分享和转载自互联网,转载目的在于传递更多信息,并不代表本网赞同其观点和对其真实性负责。

如有侵权、违反国家法律政策行为,请联系我们,我们会第一时间及时清除和处理!

举报反馈邮箱:admin@hao4k.cn

Copyright  2019-2020  Hao4K影音粤公网安备 44030302001429号    ( 粤ICP备18155646号-1 )|网站地图