专注4K家庭影音, 服务千万家庭影音发烧友!

[美剧] 西班牙公主 第一季4k The.Spanish.Princess.S01.2160p.STAN.WEBRip.DTS-HD.MA.5.1.x265-4k美剧下载

大红色 发表于 2020-10-12 09:24:37 | 显示全部楼层
电视剧频道
电视剧封面:
电视剧名: 西班牙公主 第一季4k
年  代: 2019  
国  家: 美国
类  别: 剧情 历史 
语  言: 英语
字  幕: 英文原版
上映日期: 2019-05-05
文件格式: mkv    
视频效果: 4K(3840x2160)    
资源大小: 55.52 GB
片  长: 56 分钟
导  演: 波吉特·斯塔莫 / 戴纳·里德 / 丽莎·克拉克
剧情简介: Starz过去宣布拍摄《白王后 The White Queen》及《白公主 The White Princess》的姐妹篇限定剧《西班牙公主 The Spanish Princess》,由Charlot te Hope饰演女主角。该剧根据Philippa Gre gory所著的小说《The Constant Princess》及《The King’s Curse》改编,现定于美国时间5月8日首播。
  《西班牙公主》主角为「亚拉冈的凯瑟琳」(Catherine of Aragon,Charlotte Hope饰演),漂亮﹑聪明﹑出身自西班牙王室的她因为政治婚姻下,带着摩尔人女官Lina来到英国并嫁给威尔士王子亚瑟,女主亦因此成了威尔士王妃,然而二人尚未洞房亚瑟就因病去世。亚拉冈的凯瑟琳声称自己尚为处女,而如果上一段婚姻能判定为无效,那她就可以嫁给亨利七世的次子亨利(未来他继任为亨利八世)。
  其他主演包括Stephanie Levi-John﹑Nadia Parkes﹑Aaron Cobham﹑Angus Imrie﹑Dame Harriet Walter﹑Laura Carmichael﹑Ruairi O’Connor﹑Georgie Henley﹑Elliot Cowan﹑Alexandra Moen﹑Philip Cumbus﹑Alan McKenna。
西班牙公主 第一季4k The.Spanish.Princess.S01.2160p.STAN.WEBRip.DTS-HD.MA.5.1.x265-4k美剧信息
  1. Video
  2. ID : 1
  3. Format : HEVC
  4. Format/Info : High Efficiency Video Coding
  5. Format profile : Main@L5@High
  6. Codec ID : V_MPEGH/ISO/HEVC
  7. Duration : 1 h 0 min
  8. Bit rate : 14.6 Mb/s
  9. Width : 3 840 pixels
  10. Height : 2 160 pixels
  11. Display aspect ratio : 16:9
  12. Frame rate mode : Constant
  13. Frame rate : 23.976 (23976/1000) FPS
  14. Original frame rate : 23.976 (24000/1001) FPS
  15. Color space : YUV
  16. Chroma subsampling : 4:2:0
  17. Bit depth : 8 bits
  18. Bits/(Pixel*Frame) : 0.073
  19. Stream size : 6.13 GiB (79%)
  20. Language : English
  21. Default : Yes
  22. Forced : No

  23. Audio
  24. ID : 2
  25. Format : DTS XLL
  26. Format/Info : Digital Theater Systems
  27. Commercial name : DTS-HD Master Audio
  28. Codec ID : A_DTS
  29. Duration : 1 h 0 min
  30. Bit rate mode : Variable
  31. Bit rate : 3 798 kb/s
  32. Channel(s) : 6 channels
  33. Channel layout : C L R Ls Rs LFE
  34. Sampling rate : 48.0 kHz
  35. Frame rate : 93.750 FPS (512 SPF)
  36. Bit depth : 24 bits
  37. Compression mode : Lossless
  38. Stream size : 1.60 GiB (21%)
  39. Title : DTS-HD Master Audio / 5.1 / 48 kHz / 3798 kbps / 24-bit
  40. Language : English
  41. Default : Yes
  42. Forced : No

  43. Text #1
  44. ID : 3
  45. Format : UTF-8
  46. Codec ID : S_TEXT/UTF8
  47. Codec ID/Info : UTF-8 Plain Text
  48. Duration : 59 min 11 s
  49. Bit rate : 54 b/s
  50. Count of elements : 815
  51. Stream size : 23.5 KiB (0%)
  52. Title : English (SDH)
  53. Language : English
  54. Default : No
  55. Forced : No

  56. Text #2
  57. ID : 4
  58. Format : PGS
  59. Muxing mode : zlib
  60. Codec ID : S_HDMV/PGS
  61. Codec ID/Info : Picture based subtitle format used on BDs/HD-DVDs
  62. Duration : 59 min 3 s
  63. Bit rate : 30.2 kb/s
  64. Count of elements : 1258
  65. Stream size : 12.8 MiB (0%)
  66. Title : Latin American
  67. Language : Spanish
  68. Default : No
  69. Forced : No
复制代码

西班牙公主 第一季4k The.Spanish.Princess.S01.2160p.STAN.WEBRip.DTS-HD.MA.5.1.x265-4k美剧下载

西班牙公主 第一季4k The.Spanish.Princess.S01.2160p.STAN.WEBRip.DTS-HD.MA.5.1.x265【55.52 GB】
西班牙公主 第一季4k The.Spanish.Princess.S01.2160p.STAN.WEBRip.DTS-HD.MA.5.1.x26.torrent
(140.13 KB)
回复

使用道具 举报

您需要登录后才可以回帖 登录 | 立即注册

本版积分规则

在线客服

在线客服

服务时间 9:00—18:00

返回顶部

关注微信公众号第一时间推送精彩

官方微信

手机访问

Hao4K影音

专注4k家庭影音,提供家庭影音社区,家庭影音器材库,影音问答平台,影音商城,服务千万家庭影音用户。

本站内容部分由用户自主分享和转载自互联网,转载目的在于传递更多信息,并不代表本网赞同其观点和对其真实性负责。

如有侵权、违反国家法律政策行为,请联系我们,我们会第一时间及时清除和处理!

举报反馈邮箱:admin@hao4k.cn

Copyright  2019-2020  Hao4K影音粤公网安备 44030302001429号    ( 粤ICP备18155646号-1 )|网站地图