专注4K家庭影音, 服务千万家庭影音发烧友!

休比的万圣节4k Hubie.Halloween.2020.2160p.NF.WEBRip.x265.10bit.SDR.DDP5.1.Atmos-4k电影下载

 关闭
青衫烟雨 发表于 2020-10-12 20:21:47 | 显示全部楼层
电影频道
电影封面:
片  名: 休比的万圣节4k
电影分类: 喜剧 
国  家: 美国 
年  代: 2020年
分 辨 率: 4K(3840x2160)
电影格式: MKV|REMUX 
画质标准: SDR 
音质编码: 其他AAC 
电影声道: 5.1声道 
帧数/FPS: 31.250 FPS
电影语言: 中文简体 中文繁体 英文原版 
资源大小: 14.02 GB
导  演: 史蒂文·布里尔
豆瓣评分: 5.0 分
中文字幕: /thread-50353-1-1.html
剧情简介: 亚当·桑德勒扮演的休比·杜波依斯住在波士顿附近的塞勒姆小镇,他平时热心公益乐于助人,而且热爱万圣节,只是说话怪怪的,所有人都认为他是笨蛋。万圣节当晚,休比发现有真正的鬼怪在杀人并带来了混乱。警察和镇上的居民都不相信他,但休比拯救这个小镇的决心不会变。
万圣节救星修比 / 湖比万圣节/休比的万圣节4k Hubie.Halloween.2020.2160p.NF.WEBRip.x265.10bit.SDR.DDP5.1.Atmos-4k电影信息
  1. Video
  2. ID : 1
  3. Format : HEVC
  4. Format/Info : High Efficiency Video Coding
  5. Format profile : Main 10@L5.1@High
  6. Codec ID : V_MPEGH/ISO/HEVC
  7. Duration : 1 h 43 min
  8. Bit rate : 18.5 Mb/s
  9. Width : 3 840 pixels
  10. Height : 1 920 pixels
  11. Display aspect ratio : 2.000
  12. Frame rate mode : Constant
  13. Frame rate : 24.000 FPS
  14. Color space : YUV
  15. Chroma subsampling : 4:2:0
  16. Bit depth : 10 bits
  17. Bits/(Pixel*Frame) : 0.105
  18. Stream size : 13.5 GiB (96%)
  19. Writing library : x265 3.4+26-ga82c6c7a7:[Windows][GCC 10.2.1][64 bit] 10bit
  20. Encoding settings : cpuid=1111039 / frame-threads=3 / numa-pools=12 / wpp / no-pmode / no-pme / no-psnr / no-ssim / log-level=2 / input-csp=1 / input-res=3840x1920 / interlace=0 / total-frames=149727 / level-idc=51 / high-tier=1 / uhd-bd=0 / ref=5 / no-allow-non-conformance / repeat-headers / annexb / aud / hrd / info / hash=0 / no-temporal-layers / open-gop / min-keyint=24 / keyint=250 / gop-lookahead=0 / bframes=8 / b-adapt=2 / b-pyramid / bframe-bias=0 / rc-lookahead=40 / lookahead-slices=8 / scenecut=40 / hist-scenecut=0 / radl=0 / no-splice / no-intra-refresh / ctu=64 / min-cu-size=8 / no-rect / no-amp / max-tu-size=32 / tu-inter-depth=4 / tu-intra-depth=4 / limit-tu=4 / rdoq-level=0 / dynamic-rd=0.00 / no-ssim-rd / signhide / no-tskip / nr-intra=0 / nr-inter=0 / no-constrained-intra / strong-intra-smoothing / max-merge=4 / limit-refs=1 / no-limit-modes / me=1 / subme=5 / merange=57 / temporal-mvp / no-frame-dup / no-hme / weightp / weightb / no-analyze-src-pics / deblock=-3:-3 / no-sao / no-sao-non-deblock / rd=4 / selective-sao=0 / early-skip / rskip / no-fast-intra / no-tskip-fast / no-cu-lossless / b-intra / no-splitrd-skip / rdpenalty=0 / psy-rd=2.00 / psy-rdoq=0.00 / no-rd-refine / no-lossless / cbqpoffs=0 / crqpoffs=0 / rc=crf / crf=19.0 / qcomp=0.60 / qpstep=4 / stats-write=0 / stats-read=0 / vbv-maxrate=160000 / vbv-bufsize=160000 / vbv-init=0.9 / min-vbv-fullness=50.0 / max-vbv-fullness=80.0 / crf-max=0.0 / crf-min=0.0 / ipratio=1.30 / pbratio=1.20 / aq-mode=1 / aq-strength=0.80 / no-cutree / zone-count=0 / no-strict-cbr / qg-size=32 / no-rc-grain / qpmax=69 / qpmin=0 / no-const-vbv / sar=1 / overscan=0 / videoformat=5 / range=0 / colorprim=1 / transfer=1 / colormatrix=1 / chromaloc=0 / display-window=0 / cll=0,0 / min-luma=0 / max-luma=1023 / log2-max-poc-lsb=8 / vui-timing-info / vui-hrd-info / slices=1 / no-opt-qp-pps / no-opt-ref-list-length-pps / no-multi-pass-opt-rps / scenecut-bias=0.05 / hist-threshold=0.03 / no-opt-cu-delta-qp / no-aq-motion / no-hdr10 / no-hdr10-opt / no-dhdr10-opt / no-idr-recovery-sei / analysis-reuse-level=0 / analysis-save-reuse-level=0 / analysis-load-reuse-level=0 / scale-factor=0 / refine-intra=0 / refine-inter=0 / refine-mv=1 / refine-ctu-distortion=0 / no-limit-sao / ctu-info=0 / no-lowpass-dct / refine-analysis-type=0 / copy-pic=1 / max-ausize-factor=1.0 / no-dynamic-refine / no-single-sei / no-hevc-aq / no-svt / no-field / qp-adaptation-range=1.00 / no-scenecut-aware-qpconformance-window-offsets / right=0 / bottom=0 / decoder-max-rate=0 / no-vbv-live-multi-pass
  21. Default : Yes
  22. Forced : No
  23. Color range : Limited
  24. Color primaries : BT.709
  25. Transfer characteristics : BT.709
  26. Matrix coefficients : BT.709

  27. Audio
  28. ID : 2
  29. Format : E-AC-3 JOC
  30. Format/Info : Enhanced AC-3 with Joint Object Coding
  31. Commercial name : Dolby Digital Plus with Dolby Atmos
  32. Codec ID : A_EAC3
  33. Duration : 1 h 43 min
  34. Bit rate mode : Constant
  35. Bit rate : 768 kb/s
  36. Channel(s) : 6 channels
  37. Channel layout : L R C LFE Ls Rs
  38. Sampling rate : 48.0 kHz
  39. Frame rate : 31.250 FPS (1536 SPF)
  40. Compression mode : Lossy
  41. Stream size : 571 MiB (4%)
  42. Language : English
  43. Service kind : Complete Main
  44. Default : Yes
  45. Forced : No
  46. Complexity index : 16
  47. Number of dynamic objects : 15
  48. Bed channel count : 1 channel
  49. Bed channel configuration : LFE

  50. Text #1
  51. ID : 3
  52. Format : UTF-8
  53. Codec ID : S_TEXT/UTF8
  54. Codec ID/Info : UTF-8 Plain Text
  55. Duration : 1 h 39 min
  56. Bit rate : 96 b/s
  57. Count of elements : 2038
  58. Stream size : 70.0 KiB (0%)
  59. Title : SDH
  60. Language : English
  61. Default : No
  62. Forced : No

  63. Text #2
  64. ID : 4
  65. Format : UTF-8
  66. Codec ID : S_TEXT/UTF8
  67. Codec ID/Info : UTF-8 Plain Text
  68. Duration : 1 h 41 min
  69. Bit rate : 120 b/s
  70. Count of elements : 1557
  71. Stream size : 89.6 KiB (0%)
  72. Language : Arabic
  73. Default : No
  74. Forced : No

  75. Text #3
  76. ID : 5
  77. Format : UTF-8
  78. Codec ID : S_TEXT/UTF8
  79. Codec ID/Info : UTF-8 Plain Text
  80. Duration : 1 h 41 min
  81. Bit rate : 72 b/s
  82. Count of elements : 1571
  83. Stream size : 54.0 KiB (0%)
  84. Language : Czech
  85. Default : No
  86. Forced : No

  87. Text #4
  88. ID : 6
  89. Format : UTF-8
  90. Codec ID : S_TEXT/UTF8
  91. Codec ID/Info : UTF-8 Plain Text
  92. Duration : 1 h 41 min
  93. Bit rate : 60 b/s
  94. Count of elements : 1566
  95. Stream size : 45.4 KiB (0%)
  96. Language : Danish
  97. Default : No
  98. Forced : No

  99. Text #5
  100. ID : 7
  101. Format : UTF-8
  102. Codec ID : S_TEXT/UTF8
  103. Codec ID/Info : UTF-8 Plain Text
  104. Duration : 1 h 34 min
  105. Bit rate : 72 b/s
  106. Count of elements : 1512
  107. Stream size : 50.0 KiB (0%)
  108. Language : German
  109. Default : No
  110. Forced : No

  111. Text #6
  112. ID : 8
  113. Format : UTF-8
  114. Codec ID : S_TEXT/UTF8
  115. Codec ID/Info : UTF-8 Plain Text
  116. Duration : 1 h 41 min
  117. Bit rate : 114 b/s
  118. Count of elements : 1596
  119. Stream size : 85.6 KiB (0%)
  120. Language : Greek
  121. Default : No
  122. Forced : No

  123. Text #7
  124. ID : 9
  125. Format : UTF-8
  126. Codec ID : S_TEXT/UTF8
  127. Codec ID/Info : UTF-8 Plain Text
  128. Duration : 1 h 41 min
  129. Bit rate : 67 b/s
  130. Count of elements : 1585
  131. Stream size : 50.4 KiB (0%)
  132. Language : Spanish
  133. Default : No
  134. Forced : No

  135. Text #8
  136. ID : 10
  137. Format : UTF-8
  138. Codec ID : S_TEXT/UTF8
  139. Codec ID/Info : UTF-8 Plain Text
  140. Duration : 1 h 41 min
  141. Bit rate : 63 b/s
  142. Count of elements : 1541
  143. Stream size : 47.5 KiB (0%)
  144. Title : European
  145. Language : Spanish
  146. Default : No
  147. Forced : No

  148. Text #9
  149. ID : 11
  150. Format : UTF-8
  151. Codec ID : S_TEXT/UTF8
  152. Codec ID/Info : UTF-8 Plain Text
  153. Duration : 1 h 41 min
  154. Bit rate : 69 b/s
  155. Count of elements : 1424
  156. Stream size : 51.8 KiB (0%)
  157. Language : Finnish
  158. Default : No
  159. Forced : No

  160. Text #10
  161. ID : 12
  162. Format : UTF-8
  163. Codec ID : S_TEXT/UTF8
  164. Codec ID/Info : UTF-8 Plain Text
  165. Duration : 1 h 41 min
  166. Bit rate : 73 b/s
  167. Count of elements : 1569
  168. Stream size : 54.6 KiB (0%)
  169. Language : French
  170. Default : No
  171. Forced : No

  172. Text #11
  173. ID : 13
  174. Format : UTF-8
  175. Codec ID : S_TEXT/UTF8
  176. Codec ID/Info : UTF-8 Plain Text
  177. Duration : 1 h 41 min
  178. Bit rate : 118 b/s
  179. Count of elements : 1573
  180. Stream size : 88.3 KiB (0%)
  181. Language : Hebrew
  182. Default : No
  183. Forced : No

  184. Text #12
  185. ID : 14
  186. Format : UTF-8
  187. Codec ID : S_TEXT/UTF8
  188. Codec ID/Info : UTF-8 Plain Text
  189. Duration : 1 h 41 min
  190. Bit rate : 65 b/s
  191. Count of elements : 1534
  192. Stream size : 49.1 KiB (0%)
  193. Language : Croatian
  194. Default : No
  195. Forced : No

  196. Text #13
  197. ID : 15
  198. Format : UTF-8
  199. Codec ID : S_TEXT/UTF8
  200. Codec ID/Info : UTF-8 Plain Text
  201. Duration : 1 h 34 min
  202. Bit rate : 72 b/s
  203. Count of elements : 1523
  204. Stream size : 49.8 KiB (0%)
  205. Language : Hungarian
  206. Default : No
  207. Forced : No

  208. Text #14
  209. ID : 16
  210. Format : UTF-8
  211. Codec ID : S_TEXT/UTF8
  212. Codec ID/Info : UTF-8 Plain Text
  213. Duration : 1 h 41 min
  214. Bit rate : 67 b/s
  215. Count of elements : 1592
  216. Stream size : 50.0 KiB (0%)
  217. Language : Indonesian
  218. Default : No
  219. Forced : No

  220. Text #15
  221. ID : 17
  222. Format : UTF-8
  223. Codec ID : S_TEXT/UTF8
  224. Codec ID/Info : UTF-8 Plain Text
  225. Duration : 1 h 41 min
  226. Bit rate : 68 b/s
  227. Count of elements : 1570
  228. Stream size : 50.8 KiB (0%)
  229. Language : Italian
  230. Default : No
  231. Forced : No

  232. Text #16
  233. ID : 18
  234. Format : UTF-8
  235. Codec ID : S_TEXT/UTF8
  236. Codec ID/Info : UTF-8 Plain Text
  237. Duration : 1 h 41 min
  238. Bit rate : 64 b/s
  239. Count of elements : 1490
  240. Stream size : 47.8 KiB (0%)
  241. Language : Japanese
  242. Default : No
  243. Forced : No

  244. Text #17
  245. ID : 19
  246. Format : UTF-8
  247. Codec ID : S_TEXT/UTF8
  248. Codec ID/Info : UTF-8 Plain Text
  249. Duration : 1 h 41 min
  250. Bit rate : 85 b/s
  251. Count of elements : 1633
  252. Stream size : 64.0 KiB (0%)
  253. Language : Korean
  254. Default : No
  255. Forced : No

  256. Text #18
  257. ID : 20
  258. Format : UTF-8
  259. Codec ID : S_TEXT/UTF8
  260. Codec ID/Info : UTF-8 Plain Text
  261. Duration : 1 h 41 min
  262. Bit rate : 64 b/s
  263. Count of elements : 1516
  264. Stream size : 48.1 KiB (0%)
  265. Language : Malay
  266. Default : No
  267. Forced : No

  268. Text #19
  269. ID : 21
  270. Format : UTF-8
  271. Codec ID : S_TEXT/UTF8
  272. Codec ID/Info : UTF-8 Plain Text
  273. Duration : 1 h 41 min
  274. Bit rate : 64 b/s
  275. Count of elements : 1446
  276. Stream size : 47.8 KiB (0%)
  277. Language : Norwegian Bokmal
  278. Default : No
  279. Forced : No

  280. Text #20
  281. ID : 22
  282. Format : UTF-8
  283. Codec ID : S_TEXT/UTF8
  284. Codec ID/Info : UTF-8 Plain Text
  285. Duration : 1 h 41 min
  286. Bit rate : 59 b/s
  287. Count of elements : 1405
  288. Stream size : 44.1 KiB (0%)
  289. Language : Dutch
  290. Default : No
  291. Forced : No

  292. Text #21
  293. ID : 23
  294. Format : UTF-8
  295. Codec ID : S_TEXT/UTF8
  296. Codec ID/Info : UTF-8 Plain Text
  297. Duration : 1 h 41 min
  298. Bit rate : 65 b/s
  299. Count of elements : 1539
  300. Stream size : 48.5 KiB (0%)
  301. Language : Polish
  302. Default : No
  303. Forced : No

  304. Text #22
  305. ID : 24
  306. Format : UTF-8
  307. Codec ID : S_TEXT/UTF8
  308. Codec ID/Info : UTF-8 Plain Text
  309. Duration : 1 h 41 min
  310. Bit rate : 69 b/s
  311. Count of elements : 1539
  312. Stream size : 51.6 KiB (0%)
  313. Language : Portuguese
  314. Default : No
  315. Forced : No

  316. Text #23
  317. ID : 25
  318. Format : UTF-8
  319. Codec ID : S_TEXT/UTF8
  320. Codec ID/Info : UTF-8 Plain Text
  321. Duration : 1 h 41 min
  322. Bit rate : 70 b/s
  323. Count of elements : 1526
  324. Stream size : 52.3 KiB (0%)
  325. Title : Brazilian
  326. Language : Portuguese
  327. Default : No
  328. Forced : No

  329. Text #24
  330. ID : 26
  331. Format : UTF-8
  332. Codec ID : S_TEXT/UTF8
  333. Codec ID/Info : UTF-8 Plain Text
  334. Duration : 1 h 41 min
  335. Bit rate : 74 b/s
  336. Count of elements : 1497
  337. Stream size : 55.5 KiB (0%)
  338. Language : Romanian
  339. Default : No
  340. Forced : No

  341. Text #25
  342. ID : 27
  343. Format : UTF-8
  344. Codec ID : S_TEXT/UTF8
  345. Codec ID/Info : UTF-8 Plain Text
  346. Duration : 1 h 41 min
  347. Bit rate : 110 b/s
  348. Count of elements : 1467
  349. Stream size : 82.2 KiB (0%)
  350. Language : Russian
  351. Default : No
  352. Forced : No

  353. Text #26
  354. ID : 28
  355. Format : UTF-8
  356. Codec ID : S_TEXT/UTF8
  357. Codec ID/Info : UTF-8 Plain Text
  358. Duration : 1 h 41 min
  359. Bit rate : 67 b/s
  360. Count of elements : 1427
  361. Stream size : 49.9 KiB (0%)
  362. Language : Swedish
  363. Default : No
  364. Forced : No

  365. Text #27
  366. ID : 29
  367. Format : UTF-8
  368. Codec ID : S_TEXT/UTF8
  369. Codec ID/Info : UTF-8 Plain Text
  370. Duration : 1 h 41 min
  371. Bit rate : 183 b/s
  372. Count of elements : 1566
  373. Stream size : 137 KiB (0%)
  374. Language : Thai
  375. Default : No
  376. Forced : No

  377. Text #28
  378. ID : 30
  379. Format : UTF-8
  380. Codec ID : S_TEXT/UTF8
  381. Codec ID/Info : UTF-8 Plain Text
  382. Duration : 1 h 41 min
  383. Bit rate : 68 b/s
  384. Count of elements : 1548
  385. Stream size : 51.1 KiB (0%)
  386. Language : Turkish
  387. Default : No
  388. Forced : No

  389. Text #29
  390. ID : 31
  391. Format : UTF-8
  392. Codec ID : S_TEXT/UTF8
  393. Codec ID/Info : UTF-8 Plain Text
  394. Duration : 1 h 41 min
  395. Bit rate : 94 b/s
  396. Count of elements : 1568
  397. Stream size : 70.7 KiB (0%)
  398. Language : Vietnamese
  399. Default : No
  400. Forced : No

  401. Text #30
  402. ID : 32
  403. Format : UTF-8
  404. Codec ID : S_TEXT/UTF8
  405. Codec ID/Info : UTF-8 Plain Text
  406. Duration : 1 h 41 min
  407. Bit rate : 73 b/s
  408. Count of elements : 1570
  409. Stream size : 55.0 KiB (0%)
  410. Title : Simplified
  411. Language : Chinese
  412. Default : No
  413. Forced : No

  414. Text #31
  415. ID : 33
  416. Format : UTF-8
  417. Codec ID : S_TEXT/UTF8
  418. Codec ID/Info : UTF-8 Plain Text
  419. Duration : 1 h 41 min
  420. Bit rate : 68 b/s
  421. Count of elements : 1600
  422. Stream size : 51.3 KiB (0%)
  423. Title : Traditional
  424. Language : Chinese
  425. Default : No
  426. Forced : No
复制代码

万圣节救星修比 / 湖比万圣节/休比的万圣节4k Hubie.Halloween.2020.2160p.NF.WEBRip.x265.10bit.SDR.DDP5.1.Atmos-4k电影下载

休比的万圣节4k Hubie.Halloween.2020.2160p.NF.WEBRip.x265.10bit.SDR.DDP5.1.Atmos【14.02 GB】
[Hao4k]休比的万圣节4k Hubie.Halloween.2020.2160p.NF.WEBRip.x265.10bit.SDR.DDP5.1.torrent
(70.64 KB, 售价: 2 K币)
回复

使用道具 举报

您需要登录后才可以回帖 登录 | 立即注册

本版积分规则

在线客服

在线客服

服务时间 9:00—18:00

返回顶部

关注微信公众号第一时间推送精彩

官方微信

手机访问

Hao4K影音

专注4k家庭影音,提供家庭影音社区,家庭影音器材库,影音问答平台,影音商城,服务千万家庭影音用户。

本站内容部分由用户自主分享和转载自互联网,转载目的在于传递更多信息,并不代表本网赞同其观点和对其真实性负责。

如有侵权、违反国家法律政策行为,请联系我们,我们会第一时间及时清除和处理!

举报反馈邮箱:admin@hao4k.cn

Copyright  2019-2020  Hao4K影音粤公网安备 44030302001429号    ( 粤ICP备18155646号-1 )|网站地图