专注4K家庭影音, 服务千万家庭影音发烧友!

[待验证4K资源] 回到未来2 4k Back.to.the.Future.Part.II.1989.2160p-4k电影下载

碧池 发表于 2020-10-14 11:32:38 | 显示全部楼层
电影频道
电影封面:
片  名: 回到未来2 4k
电影分类: 科幻 冒险 喜剧 
国  家: 美国 
年  代: 80年代
分 辨 率: 4K(3840x2160)
电影格式: MKV|REMUX 
画质标准: HDR 
音质编码: Dolby Digital Plus Audio 
电影声道: 其他 
帧数/FPS: 23.976 FPS
电影语言: 英文原版 
资源大小: 11.1 GB
导  演: 罗伯特·泽米吉斯
豆瓣评分: 8.5 分
中文字幕: -
剧情简介: 马丁(Michael J. Fox 饰)才回到现实世界与女友团聚,布朗博士(Christopher Lloyd 饰)就心急火燎地把他们带到了30年后的未来世界,原来这一次是马丁未来的两个孩子因参与抢劫锒铛入狱,博士要携马丁一起阻止悲剧发生。
  周旋一番后,两个孩子被成功挽救,但三人回到现实世界后,却发现周遭发生了天翻地覆的变化,世界被贝夫(Thomas F. Wilson饰)所控制,马丁的父亲乔治惨死,母亲洛莲(Lea Thompson 饰)竟然成了贝夫的妻子!
  这一切都是因为时光机器的秘密不慎被未来的老贝夫识破,他偷偷回去捣鬼,竟因此使得整个世界都在他的掌握下!马丁与博士再次踏上时光穿梭的征途,希望将世界扳回正轨。
回到未来第二集/回到未来2 4k Back.to.the.Future.Part.II.1989.2160p.UHD.HDR.BluRay.x265.10bit.TRUEHD.ATMOS-4k电影信息
  1. Video
  2. ID : 1
  3. Format : HEVC
  4. Format/Info : High Efficiency Video Coding
  5. Format profile : Main [email protected]@Main
  6. HDR format : SMPTE ST 2086, HDR10 compatible
  7. Codec ID : V_MPEGH/ISO/HEVC
  8. Duration : 1 h 48 min
  9. Bit rate : 9 084 kb/s
  10. Width : 3 840 pixels
  11. Height : 2 160 pixels
  12. Display aspect ratio : 16:9
  13. Frame rate mode : Constant
  14. Frame rate : 23.976 (24000/1001) FPS
  15. Color space : YUV
  16. Chroma subsampling : 4:2:0 (Type 2)
  17. Bit depth : 10 bits
  18. Bits/(Pixel*Frame) : 0.046
  19. Stream size : 6.86 GiB (62%)
  20. Title : [WMAN-LorD]
  21. Language : English
  22. Default : Yes
  23. Forced : No
  24. Color range : Limited
  25. Color primaries : BT.2020
  26. Transfer characteristics : PQ
  27. Matrix coefficients : BT.2020 non-constant
  28. Mastering display color pri : Display P3
  29. Mastering display luminance : min: 0.0050 cd/m2, max: 4000 cd/m2
  30. Maximum Content Light Level : 1000 cd/m2
  31. Maximum Frame-Average Light : 606 cd/m2

  32. Audio #1
  33. ID : 2
  34. Format : E-AC-3
  35. Format/Info : Enhanced AC-3
  36. Commercial name : Dolby Digital Plus
  37. Codec ID : A_EAC3
  38. Duration : 1 h 48 min
  39. Bit rate mode : Constant
  40. Bit rate : 640 kb/s
  41. Channel(s) : 6 channels
  42. Channel layout : L R C LFE Ls Rs
  43. Sampling rate : 48.0 kHz
  44. Frame rate : 31.250 FPS (1536 SPF)
  45. Compression mode : Lossy
  46. Stream size : 495 MiB (4%)
  47. Title : Dolby Digital Plus / 5.1 / 48 kHz / 640 kbps
  48. Language : English
  49. Service kind : Complete Main
  50. Default : Yes
  51. Forced : No

  52. Audio #2
  53. ID : 3
  54. Format : MLP FBA 16-ch
  55. Format/Info : Meridian Lossless Packing FBA with 16-channel presentation
  56. Commercial name : Dolby TrueHD with Dolby Atmos
  57. Codec ID : A_TRUEHD
  58. Duration : 1 h 48 min
  59. Bit rate mode : Variable
  60. Bit rate : 4 602 kb/s
  61. Maximum bit rate : 6 954 kb/s
  62. Channel(s) : 8 channels
  63. Channel layout : L R C LFE Ls Rs Lb Rb
  64. Sampling rate : 48.0 kHz
  65. Frame rate : 1 200.000 FPS (40 SPF)
  66. Compression mode : Lossless
  67. Stream size : 3.47 GiB (31%)
  68. Title : Dolby TrueHD with Dolby Atmos
  69. Language : English
  70. Default : No
  71. Forced : No
  72. Number of dynamic objects : 11
  73. Bed channel count : 1 channel
  74. Bed channel configuration : LFE

  75. Text #1
  76. ID : 4
  77. Format : PGS
  78. Muxing mode : zlib
  79. Codec ID : S_HDMV/PGS
  80. Codec ID/Info : Picture based subtitle format used on BDs/HD-DVDs
  81. Duration : 1 h 42 min
  82. Bit rate : 32.6 kb/s
  83. Count of elements : 2532
  84. Stream size : 24.0 MiB (0%)
  85. Title : Portuguese (Brazilian)
  86. Language : Portuguese
  87. Default : Yes
  88. Forced : No

  89. Text #2
  90. ID : 5
  91. Format : PGS
  92. Muxing mode : zlib
  93. Codec ID : S_HDMV/PGS
  94. Codec ID/Info : Picture based subtitle format used on BDs/HD-DVDs
  95. Duration : 1 h 42 min
  96. Bit rate : 42.8 kb/s
  97. Count of elements : 2818
  98. Stream size : 31.4 MiB (0%)
  99. Title : English
  100. Language : English
  101. Default : No
  102. Forced : No

  103. Text #3
  104. ID : 6
  105. Format : PGS
  106. Muxing mode : zlib
  107. Codec ID : S_HDMV/PGS
  108. Codec ID/Info : Picture based subtitle format used on BDs/HD-DVDs
  109. Duration : 1 h 42 min
  110. Bit rate : 46.8 kb/s
  111. Count of elements : 3312
  112. Stream size : 34.3 MiB (0%)
  113. Title : English (SDH)
  114. Language : English
  115. Default : No
  116. Forced : No

  117. Text #4
  118. ID : 7
  119. Format : PGS
  120. Muxing mode : zlib
  121. Codec ID : S_HDMV/PGS
  122. Codec ID/Info : Picture based subtitle format used on BDs/HD-DVDs
  123. Duration : 1 h 42 min
  124. Bit rate : 27.6 kb/s
  125. Count of elements : 2504
  126. Stream size : 20.3 MiB (0%)
  127. Title : Chinese (Cantonese)
  128. Language : Chinese
  129. Default : No
  130. Forced : No

  131. Text #5
  132. ID : 8
  133. Format : PGS
  134. Muxing mode : zlib
  135. Codec ID : S_HDMV/PGS
  136. Codec ID/Info : Picture based subtitle format used on BDs/HD-DVDs
  137. Duration : 1 h 42 min
  138. Bit rate : 28.0 kb/s
  139. Count of elements : 2554
  140. Stream size : 20.6 MiB (0%)
  141. Title : Chinese (Mandarin Traditional)
  142. Language : Chinese
  143. Default : No
  144. Forced : No

  145. Text #6
  146. ID : 9
  147. Format : PGS
  148. Muxing mode : zlib
  149. Codec ID : S_HDMV/PGS
  150. Codec ID/Info : Picture based subtitle format used on BDs/HD-DVDs
  151. Duration : 1 h 42 min
  152. Bit rate : 33.8 kb/s
  153. Count of elements : 2566
  154. Stream size : 24.7 MiB (0%)
  155. Title : Croatian
  156. Language : Croatian
  157. Default : No
  158. Forced : No

  159. Text #7
  160. ID : 10
  161. Format : PGS
  162. Muxing mode : zlib
  163. Codec ID : S_HDMV/PGS
  164. Codec ID/Info : Picture based subtitle format used on BDs/HD-DVDs
  165. Duration : 1 h 42 min
  166. Bit rate : 30.0 kb/s
  167. Count of elements : 2524
  168. Stream size : 22.1 MiB (0%)
  169. Title : Czech
  170. Language : Czech
  171. Default : No
  172. Forced : No

  173. Text #8
  174. ID : 11
  175. Format : PGS
  176. Muxing mode : zlib
  177. Codec ID : S_HDMV/PGS
  178. Codec ID/Info : Picture based subtitle format used on BDs/HD-DVDs
  179. Duration : 1 h 42 min
  180. Bit rate : 34.7 kb/s
  181. Count of elements : 2558
  182. Stream size : 25.5 MiB (0%)
  183. Title : Danish
  184. Language : Danish
  185. Default : No
  186. Forced : No

  187. Text #9
  188. ID : 12
  189. Format : PGS
  190. Muxing mode : zlib
  191. Codec ID : S_HDMV/PGS
  192. Codec ID/Info : Picture based subtitle format used on BDs/HD-DVDs
  193. Duration : 1 h 42 min
  194. Bit rate : 35.5 kb/s
  195. Count of elements : 2560
  196. Stream size : 26.2 MiB (0%)
  197. Title : Dutch
  198. Language : Dutch
  199. Default : No
  200. Forced : No

  201. Text #10
  202. ID : 13
  203. Format : PGS
  204. Muxing mode : zlib
  205. Codec ID : S_HDMV/PGS
  206. Codec ID/Info : Picture based subtitle format used on BDs/HD-DVDs
  207. Duration : 1 h 42 min
  208. Bit rate : 33.6 kb/s
  209. Count of elements : 2558
  210. Stream size : 24.6 MiB (0%)
  211. Title : Finnish
  212. Language : Finnish
  213. Default : No
  214. Forced : No

  215. Text #11
  216. ID : 14
  217. Format : PGS
  218. Muxing mode : zlib
  219. Codec ID : S_HDMV/PGS
  220. Codec ID/Info : Picture based subtitle format used on BDs/HD-DVDs
  221. Duration : 1 h 42 min
  222. Bit rate : 38.6 kb/s
  223. Count of elements : 2554
  224. Stream size : 28.4 MiB (0%)
  225. Title : French (Canadian)
  226. Language : French
  227. Default : No
  228. Forced : No

  229. Text #12
  230. ID : 15
  231. Format : PGS
  232. Muxing mode : zlib
  233. Codec ID : S_HDMV/PGS
  234. Codec ID/Info : Picture based subtitle format used on BDs/HD-DVDs
  235. Duration : 1 h 42 min
  236. Bit rate : 33.5 kb/s
  237. Count of elements : 2558
  238. Stream size : 24.7 MiB (0%)
  239. Title : French (Parisian)
  240. Language : French
  241. Default : No
  242. Forced : No

  243. Text #13
  244. ID : 16
  245. Format : PGS
  246. Muxing mode : zlib
  247. Codec ID : S_HDMV/PGS
  248. Codec ID/Info : Picture based subtitle format used on BDs/HD-DVDs
  249. Duration : 1 h 42 min
  250. Bit rate : 38.5 kb/s
  251. Count of elements : 2564
  252. Stream size : 28.3 MiB (0%)
  253. Title : German
  254. Language : German
  255. Default : No
  256. Forced : No

  257. Text #14
  258. ID : 17
  259. Format : PGS
  260. Muxing mode : zlib
  261. Codec ID : S_HDMV/PGS
  262. Codec ID/Info : Picture based subtitle format used on BDs/HD-DVDs
  263. Duration : 1 h 42 min
  264. Bit rate : 39.7 kb/s
  265. Count of elements : 2594
  266. Stream size : 29.2 MiB (0%)
  267. Title : Greek
  268. Language : Greek
  269. Default : No
  270. Forced : No

  271. Text #15
  272. ID : 18
  273. Format : PGS
  274. Muxing mode : zlib
  275. Codec ID : S_HDMV/PGS
  276. Codec ID/Info : Picture based subtitle format used on BDs/HD-DVDs
  277. Duration : 1 h 42 min
  278. Bit rate : 37.7 kb/s
  279. Count of elements : 2568
  280. Stream size : 27.8 MiB (0%)
  281. Title : Hungarian
  282. Language : Hungarian
  283. Default : No
  284. Forced : No

  285. Text #16
  286. ID : 19
  287. Format : PGS
  288. Muxing mode : zlib
  289. Codec ID : S_HDMV/PGS
  290. Codec ID/Info : Picture based subtitle format used on BDs/HD-DVDs
  291. Duration : 1 h 42 min
  292. Bit rate : 34.5 kb/s
  293. Count of elements : 2574
  294. Stream size : 25.4 MiB (0%)
  295. Title : Icelandic
  296. Language : Icelandic
  297. Default : No
  298. Forced : No

  299. Text #17
  300. ID : 20
  301. Format : PGS
  302. Muxing mode : zlib
  303. Codec ID : S_HDMV/PGS
  304. Codec ID/Info : Picture based subtitle format used on BDs/HD-DVDs
  305. Duration : 1 h 42 min
  306. Bit rate : 34.2 kb/s
  307. Count of elements : 2570
  308. Stream size : 25.2 MiB (0%)
  309. Title : Italian
  310. Language : Italian
  311. Default : No
  312. Forced : No

  313. Text #18
  314. ID : 21
  315. Format : PGS
  316. Muxing mode : zlib
  317. Codec ID : S_HDMV/PGS
  318. Codec ID/Info : Picture based subtitle format used on BDs/HD-DVDs
  319. Duration : 1 h 42 min
  320. Bit rate : 21.1 kb/s
  321. Count of elements : 2282
  322. Stream size : 15.5 MiB (0%)
  323. Title : Japanese
  324. Language : Japanese
  325. Default : No
  326. Forced : No

  327. Text #19
  328. ID : 22
  329. Format : PGS
  330. Muxing mode : zlib
  331. Codec ID : S_HDMV/PGS
  332. Codec ID/Info : Picture based subtitle format used on BDs/HD-DVDs
  333. Duration : 1 h 42 min
  334. Bit rate : 23.8 kb/s
  335. Count of elements : 2522
  336. Stream size : 17.5 MiB (0%)
  337. Title : Korean
  338. Language : Korean
  339. Default : No
  340. Forced : No

  341. Text #20
  342. ID : 23
  343. Format : PGS
  344. Muxing mode : zlib
  345. Codec ID : S_HDMV/PGS
  346. Codec ID/Info : Picture based subtitle format used on BDs/HD-DVDs
  347. Duration : 1 h 42 min
  348. Bit rate : 32.4 kb/s
  349. Count of elements : 2562
  350. Stream size : 23.9 MiB (0%)
  351. Title : Norwegian
  352. Language : Norwegian
  353. Default : No
  354. Forced : No

  355. Text #21
  356. ID : 24
  357. Format : PGS
  358. Muxing mode : zlib
  359. Codec ID : S_HDMV/PGS
  360. Codec ID/Info : Picture based subtitle format used on BDs/HD-DVDs
  361. Duration : 1 h 42 min
  362. Bit rate : 35.9 kb/s
  363. Count of elements : 2550
  364. Stream size : 26.4 MiB (0%)
  365. Title : Polish
  366. Language : Polish
  367. Default : No
  368. Forced : No

  369. Text #22
  370. ID : 25
  371. Format : PGS
  372. Muxing mode : zlib
  373. Codec ID : S_HDMV/PGS
  374. Codec ID/Info : Picture based subtitle format used on BDs/HD-DVDs
  375. Duration : 1 h 42 min
  376. Bit rate : 35.9 kb/s
  377. Count of elements : 2568
  378. Stream size : 26.4 MiB (0%)
  379. Title : Portuguese (Iberian)
  380. Language : Portuguese
  381. Default : No
  382. Forced : No

  383. Text #23
  384. ID : 26
  385. Format : PGS
  386. Muxing mode : zlib
  387. Codec ID : S_HDMV/PGS
  388. Codec ID/Info : Picture based subtitle format used on BDs/HD-DVDs
  389. Duration : 1 h 42 min
  390. Bit rate : 30.8 kb/s
  391. Count of elements : 2524
  392. Stream size : 22.7 MiB (0%)
  393. Title : Romanian
  394. Language : Romanian
  395. Default : No
  396. Forced : No

  397. Text #24
  398. ID : 27
  399. Format : PGS
  400. Muxing mode : zlib
  401. Codec ID : S_HDMV/PGS
  402. Codec ID/Info : Picture based subtitle format used on BDs/HD-DVDs
  403. Duration : 1 h 42 min
  404. Bit rate : 29.6 kb/s
  405. Count of elements : 2560
  406. Stream size : 21.8 MiB (0%)
  407. Title : Slovenian
  408. Language : Slovenian
  409. Default : No
  410. Forced : No

  411. Text #25
  412. ID : 28
  413. Format : PGS
  414. Muxing mode : zlib
  415. Codec ID : S_HDMV/PGS
  416. Codec ID/Info : Picture based subtitle format used on BDs/HD-DVDs
  417. Duration : 1 h 42 min
  418. Bit rate : 36.8 kb/s
  419. Count of elements : 2566
  420. Stream size : 27.1 MiB (0%)
  421. Title : Spanish (Castilian)
  422. Language : Spanish
  423. Default : No
  424. Forced : No

  425. Text #26
  426. ID : 29
  427. Format : PGS
  428. Muxing mode : zlib
  429. Codec ID : S_HDMV/PGS
  430. Codec ID/Info : Picture based subtitle format used on BDs/HD-DVDs
  431. Duration : 1 h 42 min
  432. Bit rate : 35.5 kb/s
  433. Count of elements : 2442
  434. Stream size : 26.1 MiB (0%)
  435. Title : Spanish (Latin American)
  436. Language : Spanish
  437. Default : No
  438. Forced : No

  439. Text #27
  440. ID : 30
  441. Format : PGS
  442. Muxing mode : zlib
  443. Codec ID : S_HDMV/PGS
  444. Codec ID/Info : Picture based subtitle format used on BDs/HD-DVDs
  445. Duration : 1 h 42 min
  446. Bit rate : 31.6 kb/s
  447. Count of elements : 2530
  448. Stream size : 23.1 MiB (0%)
  449. Title : Swedish
  450. Language : Swedish
  451. Default : No
  452. Forced : No

  453. Text #28
  454. ID : 31
  455. Format : PGS
  456. Muxing mode : zlib
  457. Codec ID : S_HDMV/PGS
  458. Codec ID/Info : Picture based subtitle format used on BDs/HD-DVDs
  459. Duration : 1 h 42 min
  460. Bit rate : 27.7 kb/s
  461. Count of elements : 2528
  462. Stream size : 20.3 MiB (0%)
  463. Title : Thai
  464. Language : Thai
  465. Default : No
  466. Forced : No

  467. Text #29
  468. ID : 32
  469. Format : PGS
  470. Muxing mode : zlib
  471. Codec ID : S_HDMV/PGS
  472. Codec ID/Info : Picture based subtitle format used on BDs/HD-DVDs
  473. Duration : 1 h 42 min
  474. Bit rate : 35.9 kb/s
  475. Count of elements : 2566
  476. Stream size : 26.4 MiB (0%)
  477. Title : Turkish
  478. Language : Turkish
  479. Default : No
  480. Forced : No

  481. Menu
  482. 00:00:00.000 : en:Back From the Future
  483. 00:02:58.512 : en:Main Titles
  484. 00:04:18.550 : en:Hill Valley, 2015
  485. 00:12:45.390 : en:Marty Junior?
  486. 00:17:10.112 : en:Batter Up!
  487. 00:21:17.526 : en:The Almanac
  488. 00:27:00.661 : en:The Future McFlys
  489. 00:34:16.429 : en:Chicken
  490. 00:38:33.478 : en:Past Imperfect
  491. 00:46:14.188 : en:My Father?
  492. 00:50:36.450 : en:An Alternate 1985
  493. 00:55:33.622 : en:Anout That Book
  494. 01:01:31.146 : en:Back to 1955
  495. 01:07:15.198 : en:Biff's Lucky Day
  496. 01:14:46.941 : en:Back to the Dance
  497. 01:28:01.610 : en:Get That Book!
  498. 01:34:44.304 : en:Back to Normal?
  499. 01:37:47.028 : en:A Letter From 1885
  500. 01:40:38.241 : en:I'm Back
  501. 01:43:26.575 : en:End Titles
复制代码

回到未来第二集/回到未来2 4k Back.to.the.Future.Part.II.1989.2160p.UHD.HDR.BluRay.x265.10bit.TRUEHD.ATMOS 4k电影下载

回到未来2 4k Back.to.the.Future.Part.II.1989.2160p.UHD.HDR.BluRay.x265.10bit.TRUEHD.ATMOS【11.1GB】
回到未来2 4k.txt
(104 Bytes)
回复

使用道具 举报

发烧友评论5

倒序浏览
alwaysdk 发表于 2020-10-17 18:49:52 | 显示全部楼层
爷青回~!谢谢分享
回复 支持 反对

使用道具 举报

coolkufeng 发表于 2020-10-15 09:41:46 | 显示全部楼层
这个听说非常的经典
回复 支持 反对

使用道具 举报

您需要登录后才可以回帖 登录 | 立即注册

本版积分规则


0关注

19粉丝

64帖子

热门图文主题
热门主题
社区广告

在线客服

在线客服

服务时间 9:00—18:00

返回顶部

关注微信公众号第一时间推送精彩

官方微信

手机访问

Hao4K影音

专注4k家庭影音,提供家庭影音社区,家庭影音器材库,影音问答平台,影音商城,服务千万家庭影音用户。

本站内容部分由用户自主分享和转载自互联网,转载目的在于传递更多信息,并不代表本网赞同其观点和对其真实性负责。

如有侵权、违反国家法律政策行为,请联系我们,我们会第一时间及时清除和处理!

举报反馈邮箱:admin@hao4k.cn

Copyright  2019-2020  Hao4K影音粤公网安备 44030302001429号    ( 粤ICP备18155646号-1 )|网站地图