专注4K家庭影音, 服务千万家庭影音发烧友!

[美剧] 地狱风暴4k Helstrom.S01.2160p.HULU.WEBRip.DDP5.1.x265-4k美剧下载

大红色 发表于 2020-10-16 18:24:13 | 显示全部楼层
电视剧频道
电视剧封面:
电视剧名: 地狱风暴4k
年  代: 2020  
国  家: 美国
类  别: 动作 科幻 冒险 恐怖 剧情 奇幻 
语  言: 英语
字  幕: 英文原版
上映日期: 2020-10-16
文件格式: mkv    
视频效果: 4K(3840x2160)    
资源大小: 51.76 GB
片  长: 60 分钟
导  演: 约翰尼·罗密特
剧情简介: 讲述Daimon及Ana Helstrom是一个神秘﹑强大的连环杀手后裔,在漫画中Daimon和妹妹Satana实际上是撒旦的孩子,Daimon拥有恶魔的能力,而且可穿梭地狱。此剧由Paul Zbyszewski及Jeph Loeb负责。
Helstrom/地狱风暴4k Helstrom.S01.2160p.HULU.WEBRip.DDP5.1.x265-4k美剧信息
  1. Video
  2. ID : 1
  3. Format : HEVC
  4. Format/Info : High Efficiency Video Coding
  5. Format profile : Main 10@L5.1@Main
  6. Codec ID : V_MPEGH/ISO/HEVC
  7. Duration : 54 min 0 s
  8. Bit rate : 14.6 Mb/s
  9. Width : 3 840 pixels
  10. Height : 2 160 pixels
  11. Display aspect ratio : 16:9
  12. Frame rate mode : Constant
  13. Frame rate : 23.976 (24000/1001) FPS
  14. Color space : YUV
  15. Chroma subsampling : 4:2:0
  16. Bit depth : 10 bits
  17. Bits/(Pixel*Frame) : 0.074
  18. Stream size : 5.51 GiB (96%)
  19. Default : Yes
  20. Forced : No

  21. Audio
  22. ID : 2
  23. Format : E-AC-3
  24. Format/Info : Enhanced AC-3
  25. Commercial name : Dolby Digital Plus
  26. Codec ID : A_EAC3
  27. Duration : 54 min 0 s
  28. Bit rate mode : Constant
  29. Bit rate : 256 kb/s
  30. Channel(s) : 6 channels
  31. Channel layout : L R C LFE Ls Rs
  32. Sampling rate : 48.0 kHz
  33. Frame rate : 31.250 FPS (1536 SPF)
  34. Compression mode : Lossy
  35. Stream size : 98.9 MiB (2%)
  36. Language : English
  37. Service kind : Complete Main
  38. Default : Yes
  39. Forced : No

  40. Text #1
  41. ID : 3
  42. Format : UTF-8
  43. Codec ID : S_TEXT/UTF8
  44. Codec ID/Info : UTF-8 Plain Text
  45. Language : English
  46. Default : No
  47. Forced : No

  48. Text #2
  49. ID : 4
  50. Format : UTF-8
  51. Codec ID : S_TEXT/UTF8
  52. Codec ID/Info : UTF-8 Plain Text
  53. Language : Spanish
  54. Default : No
  55. Forced : No
复制代码

Helstrom/地狱风暴4k Helstrom.S01.2160p.HULU.WEBRip.DDP5.1.x265-4k美剧下载

地狱风暴4k Helstrom.S01.2160p.HULU.WEBRip.DDP5.1.x265【51.76 GB】
地狱风暴4k Helstrom.S01.2160p.HULU.WEBRip.DDP5.1.x265-CAKES[rartv].torrent
(130.55 KB)
回复

使用道具 举报

发烧友评论6

倒序浏览
HWyt 发表于 2020-10-20 18:56:32 | 显示全部楼层
谢谢分享。
下载收藏了。
也是没有搜到字幕。可怜了


咳咳,字幕组里有前6集WB版的字幕,试过可以用。
回复 支持 反对

使用道具 举报

zxcvbnma 发表于 2020-10-19 19:52:39 | 显示全部楼层
世爵37 发表于 2020-10-19 09:45
童年回忆,谢谢分享

刚出的,回忆??
回复 支持 反对

使用道具 举报

baoxian115 发表于 2020-10-17 08:54:14 | 显示全部楼层
感谢楼主分享
回复 支持 反对

使用道具 举报

cjh623624 发表于 2020-10-16 21:58:35 | 显示全部楼层
噫,字幕居然全网没有啊
回复 支持 反对

使用道具 举报

cbhump 发表于 2020-10-16 20:29:11 | 显示全部楼层
谢谢分享了 GOOD!
回复 支持 反对

使用道具 举报

您需要登录后才可以回帖 登录 | 立即注册

本版积分规则

在线客服

在线客服

服务时间 9:00—18:00

返回顶部

关注微信公众号第一时间推送精彩

官方微信

手机访问

Hao4K影音

专注4k家庭影音,提供家庭影音社区,家庭影音器材库,影音问答平台,影音商城,服务千万家庭影音用户。

本站内容部分由用户自主分享和转载自互联网,转载目的在于传递更多信息,并不代表本网赞同其观点和对其真实性负责。

如有侵权、违反国家法律政策行为,请联系我们,我们会第一时间及时清除和处理!

举报反馈邮箱:admin@hao4k.cn

Copyright  2019-2020  Hao4K影音粤公网安备 44030302001429号    ( 粤ICP备18155646号-1 )|网站地图