专注4K家庭影音, 服务千万家庭影音发烧友!

爱与怪物4K.Love.and.Monsters.2020.HDR.2160p.WEB.H265-4k电影下载

 关闭
青衫烟雨 发表于 2020-10-18 18:50:18 | 显示全部楼层
电影频道
电影封面:
片  名: 爱与怪物4K
电影分类: 冒险 
国  家: 美国 
年  代: 2020年
分 辨 率: 4K(3840x2160)
电影格式: MKV|REMUX 
画质标准: HDR 
音质编码: Dolby Digital Plus Audio 其他AAC 
电影声道: 5.1声道 
帧数/FPS: 23.976 FPS
电影语言: 英文原版 
资源大小: 11.73 GB
导  演: 迈克尔·马修斯
豆瓣评分: 7.4 分
中文字幕: /thread-50514-1-1.html
剧情简介: 影片据称风格结合《僵尸之地》和约翰·修斯的青少年电影,讲述一场“怪物末日”迫使所有人类转到地下殖民地居住,此事件7年后,男主Joel Dawson(奥布莱恩)目睹身边的幸存者们都成双成对了,他也想和自己的梦中女孩Aimee(亨维克)在一起。为此,Dawson勇敢地去到地表,并和一只英勇的狗狗及两个人(鲁克和Greenblatt)成了队友,在他们的帮助下,Dawson要努力穿越怪兽横行的后末世,寻找真爱。
怪物问题 / Monster Problems/爱与怪物4K.Love.and.Monsters.2020.HDR.2160p.WEB.H265-4k电影信息
  1. Video
  2. ID : 1
  3. Format : HEVC
  4. Format/Info : High Efficiency Video Coding
  5. Format profile : Main 10@L5@Main
  6. Codec ID : V_MPEGH/ISO/HEVC
  7. Duration : 1 h 48 min
  8. Bit rate : 14.7 Mb/s
  9. Width : 3 840 pixels
  10. Height : 2 160 pixels
  11. Display aspect ratio : 16:9
  12. Frame rate mode : Constant
  13. Frame rate : 23.976 (24000/1001) FPS
  14. Color space : YUV
  15. Chroma subsampling : 4:2:0 (Type 2)
  16. Bit depth : 10 bits
  17. Bits/(Pixel*Frame) : 0.074
  18. Stream size : 11.2 GiB (96%)
  19. Default : Yes
  20. Forced : No
  21. Color range : Limited
  22. Color primaries : BT.2020
  23. Transfer characteristics : PQ
  24. Matrix coefficients : BT.2020 non-constant
  25. Maximum Content Light Level : 1000 cd/m2
  26. Maximum Frame-Average Light Level : 387 cd/m2

  27. Audio
  28. ID : 2
  29. Format : E-AC-3
  30. Format/Info : Enhanced AC-3
  31. Commercial name : Dolby Digital Plus
  32. Codec ID : A_EAC3
  33. Duration : 1 h 48 min
  34. Bit rate mode : Constant
  35. Bit rate : 256 kb/s
  36. Channel(s) : 6 channels
  37. Channel layout : L R C LFE Ls Rs
  38. Sampling rate : 48.0 kHz
  39. Frame rate : 31.250 FPS (1536 SPF)
  40. Compression mode : Lossy
  41. Stream size : 199 MiB (2%)
  42. Language : English
  43. Service kind : Complete Main
  44. Default : Yes
  45. Forced : No

  46. Text
  47. ID : 3
  48. Format : UTF-8
  49. Codec ID : S_TEXT/UTF8
  50. Codec ID/Info : UTF-8 Plain Text
  51. Language : English
  52. Default : No
  53. Forced : No
复制代码

怪物问题 / Monster Problems/爱与怪物4K.Love.and.Monsters.2020.HDR.2160p.WEB.H265-4k电影下载
爱与怪物4K.Love.and.Monsters.2020.HDR.2160p.WEB.H265 【4K HDR 11.73 GB】
[Hao4K]爱与怪物4K.Love.and.Monsters.2020.HDR.2160p.WEB.H265-NAISU.torrent
(59.32 KB, 售价: 3 K币)
回复

使用道具 举报

您需要登录后才可以回帖 登录 | 立即注册

本版积分规则

在线客服

在线客服

服务时间 9:00—18:00

返回顶部

关注微信公众号第一时间推送精彩

官方微信

手机访问

Hao4K影音

专注4k家庭影音,提供家庭影音社区,家庭影音器材库,影音问答平台,影音商城,服务千万家庭影音用户。

本站内容部分由用户自主分享和转载自互联网,转载目的在于传递更多信息,并不代表本网赞同其观点和对其真实性负责。

如有侵权、违反国家法律政策行为,请联系我们,我们会第一时间及时清除和处理!

举报反馈邮箱:admin@hao4k.cn

Copyright  2019-2020  Hao4K影音粤公网安备 44030302001429号    ( 粤ICP备18155646号-1 )|网站地图