专注4K家庭影音, 服务千万家庭影音发烧友!

[美剧] 如何在网上卖迷幻药 第一季4k How.To.Sell.Drugs.Online.Fast.S01.GERMAN.2160p.WEBRip.DDP5.1.x265-4k美剧下载

大红色 发表于 2020-10-20 22:33:31 | 显示全部楼层
电视剧频道
电视剧封面:
电视剧名: 如何在网上卖迷幻药 第一季4k
年  代: 2019  
国  家: 美国
类  别: 犯罪 喜剧 爱情 
语  言: 英语
字  幕: 英文原版
上映日期: 2019-05-31
文件格式: mkv    
视频效果:
资源大小: 20.51 GB GB
片  长: 30 分钟
导  演: 阿尔内·菲尔杜森 / 拉尔斯·蒙塔格
剧情简介: 如何把女友校园毒贩那里赢回来?对于莫瑞兹来说,答案显而易见:卖更棒的迷幻药。在卧室里,莫瑞兹与好友伦尼一起在网上开始贩毒,并出人意料地大获成功。不久后,意外成为毒贩的他们遇到了毒品行当最常见的问题:满足市场需求、品质控制,最重要的是不被抓到。《如何在网上卖迷幻药》是一个现代故事,讲述了失恋、友情的起起落落以及成长过程中所面临的阻碍。
新世纪线上贩毒(港) / 全欧最酷线上药头(台) / 如何(快速地)在网上卖迷幻药 / 不要在家里尝试 / Don't Try This At Home/如何在网上卖迷幻药 第一季4k How.To.Sell.Drugs.Online.Fast.S01.GERMAN.2160p.WEBRip.DDP5.1.x265-4k美剧信息
  1. Video
  2. ID : 1
  3. Format : HEVC
  4. Format/Info : High Efficiency Video Coding
  5. Format profile : Main@L5.1@High
  6. Codec ID : V_MPEGH/ISO/HEVC
  7. Duration : 32 min 7 s
  8. Bit rate : 18.3 Mb/s
  9. Width : 3 840 pixels
  10. Height : 2 160 pixels
  11. Display aspect ratio : 16:9
  12. Frame rate mode : Constant
  13. Frame rate : 25.000 FPS
  14. Color space : YUV
  15. Chroma subsampling : 4:2:0
  16. Bit depth : 8 bits
  17. Bits/(Pixel*Frame) : 0.088
  18. Stream size : 4.11 GiB (93%)
  19. Writing library : x265 3.3+29-1e3dbf09ee4f:[Windows][GCC 9.3.1][64 bit] 8bit+10bit
  20. Encoding settings : cpuid=1111039 / frame-threads=4 / numa-pools=28 / wpp / no-pmode / no-pme / no-psnr / no-ssim / log-level=2 / input-csp=1 / input-res=3840x2160 / interlace=0 / total-frames=0 / level-idc=51 / high-tier=1 / uhd-bd=0 / ref=4 / no-allow-non-conformance / no-repeat-headers / annexb / aud / hrd / info / hash=0 / no-temporal-layers / no-open-gop / min-keyint=25 / keyint=250 / gop-lookahead=0 / bframes=4 / b-adapt=2 / b-pyramid / bframe-bias=0 / rc-lookahead=20 / lookahead-slices=4 / scenecut=40 / hist-scenecut=0 / radl=0 / no-splice / no-intra-refresh / ctu=64 / min-cu-size=8 / rect / no-amp / max-tu-size=32 / tu-inter-depth=1 / tu-intra-depth=1 / limit-tu=0 / rdoq-level=0 / dynamic-rd=0.00 / no-ssim-rd / signhide / no-tskip / nr-intra=0 / nr-inter=0 / no-constrained-intra / no-strong-intra-smoothing / max-merge=3 / limit-refs=1 / no-limit-modes / me=1 / subme=2 / merange=57 / temporal-mvp / no-frame-dup / no-hme / weightp / no-weightb / no-analyze-src-pics / deblock=-3:-3 / no-sao / no-sao-non-deblock / rd=3 / selective-sao=0 / early-skip / rskip / no-fast-intra / no-tskip-fast / no-cu-lossless / b-intra / no-splitrd-skip / rdpenalty=0 / psy-rd=2.00 / psy-rdoq=0.00 / no-rd-refine / no-lossless / cbqpoffs=0 / crqpoffs=0 / rc=crf / crf=19.0 / qcomp=0.60 / qpstep=4 / stats-write=0 / stats-read=0 / vbv-maxrate=160000 / vbv-bufsize=160000 / vbv-init=0.9 / crf-max=0.0 / crf-min=0.0 / ipratio=1.40 / pbratio=1.30 / aq-mode=2 / aq-strength=1.00 / no-cutree / zone-count=0 / no-strict-cbr / qg-size=32 / no-rc-grain / qpmax=69 / qpmin=0 / no-const-vbv / sar=1 / overscan=0 / videoformat=5 / range=0 / colorprim=1 / transfer=1 / colormatrix=1 / chromaloc=0 / display-window=0 / cll=0,0 / min-luma=0 / max-luma=255 / log2-max-poc-lsb=8 / vui-timing-info / vui-hrd-info / slices=1 / no-opt-qp-pps / no-opt-ref-list-length-pps / no-multi-pass-opt-rps / scenecut-bias=0.05 / hist-threshold=0.01 / no-opt-cu-delta-qp / no-aq-motion / no-hdr10 / no-hdr10-opt / no-dhdr10-opt / no-idr-recovery-sei / analysis-reuse-level=0 / analysis-save-reuse-level=0 / analysis-load-reuse-level=0 / scale-factor=0 / refine-intra=0 / refine-inter=0 / refine-mv=1 / refine-ctu-distortion=0 / no-limit-sao / ctu-info=0 / no-lowpass-dct / refine-analysis-type=0 / copy-pic=1 / max-ausize-factor=1.0 / no-dynamic-refine / no-single-sei / no-hevc-aq / no-svt / no-field / qp-adaptation-range=1.00 / no-scenecut-aware-qpconformance-window-offsets / right=0 / bottom=0 / decoder-max-rate=0
  21. Language : English
  22. Default : Yes
  23. Forced : No
  24. Color range : Limited
  25. Color primaries : BT.709
  26. Transfer characteristics : BT.709
  27. Matrix coefficients : BT.709

  28. Audio #1
  29. ID : 2
  30. Format : E-AC-3
  31. Format/Info : Enhanced AC-3
  32. Commercial name : Dolby Digital Plus
  33. Codec ID : A_EAC3
  34. Duration : 32 min 25 s
  35. Bit rate mode : Constant
  36. Bit rate : 640 kb/s
  37. Channel(s) : 6 channels
  38. Channel layout : L R C LFE Ls Rs
  39. Sampling rate : 48.0 kHz
  40. Frame rate : 31.250 FPS (1536 SPF)
  41. Compression mode : Lossy
  42. Delay relative to video : 2 ms
  43. Stream size : 148 MiB (3%)
  44. Title : Dolby Digital Plus
  45. Language : German
  46. Service kind : Complete Main
  47. Default : Yes
  48. Forced : No

  49. Audio #2
  50. ID : 3
  51. Format : E-AC-3
  52. Format/Info : Enhanced AC-3
  53. Commercial name : Dolby Digital Plus
  54. Codec ID : A_EAC3
  55. Duration : 32 min 25 s
  56. Bit rate mode : Constant
  57. Bit rate : 640 kb/s
  58. Channel(s) : 6 channels
  59. Channel layout : L R C LFE Ls Rs
  60. Sampling rate : 48.0 kHz
  61. Frame rate : 31.250 FPS (1536 SPF)
  62. Compression mode : Lossy
  63. Delay relative to video : 2 ms
  64. Stream size : 148 MiB (3%)
  65. Title : Dolby Digital Plus
  66. Language : English
  67. Service kind : Complete Main
  68. Default : No
  69. Forced : No

  70. Text #1
  71. ID : 4
  72. Format : UTF-8
  73. Codec ID : S_TEXT/UTF8
  74. Codec ID/Info : UTF-8 Plain Text
  75. Duration : 26 min 5 s
  76. Bit rate : 0 b/s
  77. Count of elements : 4
  78. Stream size : 127 Bytes (0%)
  79. Language : English
  80. Default : No
  81. Forced : No

  82. Text #2
  83. ID : 5
  84. Format : UTF-8
  85. Codec ID : S_TEXT/UTF8
  86. Codec ID/Info : UTF-8 Plain Text
  87. Duration : 31 min 30 s
  88. Bit rate : 64 b/s
  89. Count of elements : 408
  90. Stream size : 14.8 KiB (0%)
  91. Title : Forced
  92. Language : English
  93. Default : Yes
复制代码

新世纪线上贩毒(港) / 全欧最酷线上药头(台) / 如何(快速地)在网上卖迷幻药 / 不要在家里尝试 / Don't Try This At Home/如何在网上卖迷幻药 第一季4k How.To.Sell.Drugs.Online.Fast.S01.GERMAN.2160p.WEBRip.DDP5.1.x265-4k美剧下载

如何在网上卖迷幻药 第一季4k How.To.Sell.Drugs.Online.Fast.S01.GERMAN.2160p.WEBRip.DDP5.1.x265【20.51 GB】
如何在网上卖迷幻药 第一季4k How.To.Sell.Drugs.Online.Fast.S01.GERMAN.2160p.WEBRi.torrent
(52.37 KB)
回复

使用道具 举报

您需要登录后才可以回帖 登录 | 立即注册

本版积分规则

在线客服

在线客服

服务时间 9:00—18:00

返回顶部

关注微信公众号第一时间推送精彩

官方微信

手机访问

Hao4K影音

专注4k家庭影音,提供家庭影音社区,家庭影音器材库,影音问答平台,影音商城,服务千万家庭影音用户。

本站内容部分由用户自主分享和转载自互联网,转载目的在于传递更多信息,并不代表本网赞同其观点和对其真实性负责。

如有侵权、违反国家法律政策行为,请联系我们,我们会第一时间及时清除和处理!

举报反馈邮箱:admin@hao4k.cn

Copyright  2019-2020  Hao4K影音粤公网安备 44030302001429号    ( 粤ICP备18155646号-1 )|网站地图