专注4K家庭影音, 服务千万家庭影音发烧友!

[美剧] 鬼庄园4k The.Haunting.of.Bly.Manor.S01.2160p.NF.WEBRip.x265.10bit.HDR.DDP5.1.Atmos-4k美剧下载

大红色 发表于 2020-10-20 22:44:47 | 显示全部楼层
电视剧频道
电视剧封面:
电视剧名: 鬼庄园4k
年  代: 2020  
国  家: 美国
类  别: 恐怖 悬疑 
语  言: 英语
字  幕: 英文原版
上映日期: 2020-10-09
文件格式: mkv    
视频效果: 4K(3840x2160)    
资源大小: 31.46 GB
片  长: 60 分钟
导  演: 夏兰·福伊 / 连恩·盖文 / 阿克塞尔·卡罗琳 / 迈克·弗拉纳根
剧情简介:  《鬼入侵》创剧人迈克·弗拉纳根和制片人特雷弗·梅西将携手推出《鬼入侵》系列下一个备受期待的章节《鬼庄园》。故事背景设定在 20 世纪 80 年代的英格兰,一名互惠生惨死后,亨利·温格雷夫(亨利·托马斯饰)雇佣了一位年轻的美国保姆(维多利亚·佩德雷蒂饰)来照顾他的孤儿侄女和侄子(阿梅莉·贝亚·史密斯、本杰明·埃文·安斯沃思饰),他们与庄园的厨师欧文(拉胡尔·寇利饰)、场地管理员杰米(阿梅莉亚·伊芙饰)和管家格罗斯夫人(泰尼亚·米勒饰)共同住在布莱庄园。然而,在这部令人不寒而栗的哥特式传奇中,庄园里的一切似乎另有隐情,数百年来关于爱和失去的黑暗秘密正在等待被发掘。在布莱庄园,死亡并不意味着销声匿迹。
  制作合作伙伴弗拉纳根和梅西借鉴了亨利·詹姆斯的经典超自然故事,以打造出由奥利弗·杰森-科恩、凯特·西格尔和塔希拉·沙里夫联合主演的群戏剧情片。该剧集的监制包括 Intrepid Pictures 的弗拉纳根和梅西,以及 Amblin Television 的达里尔·弗朗克和贾斯廷·法尔维。
鬼入侵 第二季 / 阴宅怪事(港) / 布莱庄园异事 / The Haunting of Hill House/鬼庄园4k The.Haunting.of.Bly.Manor.S01.2160p.NF.WEBRip.x265.10bit.HDR.DDP5.1.Atmos-4k美剧信息
  1. Video
  2. ID : 1
  3. Format : HEVC
  4. Format/Info : High Efficiency Video Coding
  5. Format profile : Main 10@L5.1@High
  6. HDR format : SMPTE ST 2086, HDR10 compatible
  7. Codec ID : V_MPEGH/ISO/HEVC
  8. Duration : 54 min 35 s
  9. Bit rate : 10.2 Mb/s
  10. Width : 3 840 pixels
  11. Height : 1 920 pixels
  12. Display aspect ratio : 2.000
  13. Frame rate mode : Constant
  14. Frame rate : 24.000 FPS
  15. Color space : YUV
  16. Chroma subsampling : 4:2:0 (Type 2)
  17. Bit depth : 10 bits
  18. Bits/(Pixel*Frame) : 0.058
  19. Stream size : 3.88 GiB (93%)
  20. Writing library : x265 3.4+26-g83e2d7fb0:[Windows][GCC 9.3.0][64 bit] 10bit
  21. Encoding settings : cpuid=1111039 / frame-threads=4 / numa-pools=16 / wpp / no-pmode / no-pme / no-psnr / no-ssim / log-level=2 / input-csp=1 / input-res=3840x1920 / interlace=0 / total-frames=0 / level-idc=51 / high-tier=1 / uhd-bd=0 / ref=4 / no-allow-non-conformance / repeat-headers / annexb / no-aud / no-hrd / info / hash=0 / no-temporal-layers / no-open-gop / min-keyint=24 / keyint=250 / gop-lookahead=0 / bframes=3 / b-adapt=2 / b-pyramid / bframe-bias=0 / rc-lookahead=20 / lookahead-slices=8 / scenecut=40 / hist-scenecut=0 / radl=0 / no-splice / no-intra-refresh / ctu=64 / min-cu-size=8 / no-rect / no-amp / max-tu-size=32 / tu-inter-depth=1 / tu-intra-depth=1 / limit-tu=0 / rdoq-level=0 / dynamic-rd=0.00 / no-ssim-rd / signhide / no-tskip / nr-intra=0 / nr-inter=0 / no-constrained-intra / no-strong-intra-smoothing / max-merge=3 / limit-refs=1 / no-limit-modes / me=1 / subme=2 / merange=57 / temporal-mvp / no-frame-dup / no-hme / weightp / no-weightb / no-analyze-src-pics / deblock=-3:-3 / no-sao / no-sao-non-deblock / rd=3 / selective-sao=0 / early-skip / rskip / no-fast-intra / no-tskip-fast / no-cu-lossless / b-intra / no-splitrd-skip / rdpenalty=0 / psy-rd=2.00 / psy-rdoq=0.00 / no-rd-refine / no-lossless / cbqpoffs=0 / crqpoffs=0 / rc=crf / crf=19.0 / qcomp=0.60 / qpstep=4 / stats-write=0 / stats-read=0 / vbv-maxrate=160000 / vbv-bufsize=160000 / vbv-init=0.9 / min-vbv-fullness=50.0 / max-vbv-fullness=80.0 / crf-max=0.0 / crf-min=0.0 / ipratio=1.40 / pbratio=1.30 / aq-mode=2 / aq-strength=1.00 / no-cutree / zone-count=0 / no-strict-cbr / qg-size=32 / no-rc-grain / qpmax=69 / qpmin=0 / no-const-vbv / sar=0 / overscan=0 / videoformat=5 / range=0 / colorprim=9 / transfer=16 / colormatrix=9 / chromaloc=1 / chromaloc-top=2 / chromaloc-bottom=2 / display-window=0 / master-display=G(13250,34500)B(7500,3000)R(34000,16000)WP(15635,16450)L(10000000,1) / cll=1089,96 / min-luma=0 / max-luma=1023 / log2-max-poc-lsb=8 / vui-timing-info / vui-hrd-info / slices=1 / no-opt-qp-pps / no-opt-ref-list-length-pps / no-multi-pass-opt-rps / scenecut-bias=0.05 / hist-threshold=0.03 / no-opt-cu-delta-qp / no-aq-motion / hdr10 / hdr10-opt / no-dhdr10-opt / no-idr-recovery-sei / analysis-reuse-level=0 / analysis-save-reuse-level=0 / analysis-load-reuse-level=0 / scale-factor=0 / refine-intra=0 / refine-inter=0 / refine-mv=1 / refine-ctu-distortion=0 / no-limit-sao / ctu-info=0 / no-lowpass-dct / refine-analysis-type=0 / copy-pic=1 / max-ausize-factor=1.0 / no-dynamic-refine / no-single-sei / no-hevc-aq / no-svt / no-field / qp-adaptation-range=1.00 / no-scenecut-aware-qpconformance-window-offsets / right=0 / bottom=0 / decoder-max-rate=0 / no-vbv-live-multi-pass
  22. Language : English
  23. Default : Yes
  24. Forced : No
  25. Color range : Limited
  26. Color primaries : BT.2020
  27. Transfer characteristics : PQ
  28. Matrix coefficients : BT.2020 non-constant
  29. Mastering display color primaries : Display P3
  30. Mastering display luminance : min: 0.0001 cd/m2, max: 1000 cd/m2
  31. Maximum Content Light Level : 1089 cd/m2
  32. Maximum Frame-Average Light Level : 96 cd/m2

  33. Audio
  34. ID : 2
  35. Format : E-AC-3 JOC
  36. Format/Info : Enhanced AC-3 with Joint Object Coding
  37. Commercial name : Dolby Digital Plus with Dolby Atmos
  38. Codec ID : A_EAC3
  39. Duration : 56 min 8 s
  40. Bit rate mode : Constant
  41. Bit rate : 768 kb/s
  42. Channel(s) : 6 channels
  43. Channel layout : L R C LFE Ls Rs
  44. Sampling rate : 48.0 kHz
  45. Frame rate : 31.250 FPS (1536 SPF)
  46. Compression mode : Lossy
  47. Stream size : 308 MiB (7%)
  48. Title : Dolby Digital Plus ATMOS
  49. Language : English
  50. Service kind : Complete Main
  51. Default : No
  52. Forced : No
  53. Complexity index : 16
  54. Number of dynamic objects : 15
  55. Bed channel count : 1 channel
  56. Bed channel configuration : LFE

  57. Text
  58. ID : 3
  59. Format : UTF-8
  60. Codec ID : S_TEXT/UTF8
  61. Codec ID/Info : UTF-8 Plain Text
  62. Duration : 53 min 19 s
  63. Bit rate : 62 b/s
  64. Count of elements : 777
  65. Stream size : 24.3 KiB (0%)
  66. Language : English
  67. Default : No
  68. Forced : No
复制代码

鬼入侵 第二季 / 阴宅怪事(港) / 布莱庄园异事 / The Haunting of Hill House/鬼庄园4k The.Haunting.of.Bly.Manor.S01.2160p.NF.WEBRip.x265.10bit.HDR.DDP5.1.Atmos-4k美剧下载

鬼庄园4k The.Haunting.of.Bly.Manor.S01.2160p.NF.WEBRip.x265.10bit.HDR.DDP5.1.Atmos【31.46 GB】
鬼庄园4k The.Haunting.of.Bly.Manor.S01.2160p.NF.WEBRip.x265.10bit.HDR.DDP5.1.Atm.torrent
(80.05 KB)
回复

使用道具 举报

发烧友评论5

倒序浏览
18040355 发表于 2020-10-31 11:12:06 | 显示全部楼层
总算找到了
回复 支持 反对

使用道具 举报

gymnastika 发表于 2020-10-25 10:15:59 | 显示全部楼层
好电影,支持一下。
回复 支持 反对

使用道具 举报

smart242 发表于 2020-10-23 23:02:28 | 显示全部楼层
好像没有字幕啊
回复 支持 反对

使用道具 举报

16437486 发表于 2020-10-21 09:50:28 | 显示全部楼层
终于等到了 问题是现在找不到字幕啊
回复 支持 反对

使用道具 举报

花飞血8 发表于 2020-10-21 00:49:56 | 显示全部楼层
好剧,感谢分享。
回复 支持 反对

使用道具 举报

您需要登录后才可以回帖 登录 | 立即注册

本版积分规则

在线客服

在线客服

服务时间 9:00—18:00

返回顶部

关注微信公众号第一时间推送精彩

官方微信

手机访问

Hao4K影音

专注4k家庭影音,提供家庭影音社区,家庭影音器材库,影音问答平台,影音商城,服务千万家庭影音用户。

本站内容部分由用户自主分享和转载自互联网,转载目的在于传递更多信息,并不代表本网赞同其观点和对其真实性负责。

如有侵权、违反国家法律政策行为,请联系我们,我们会第一时间及时清除和处理!

举报反馈邮箱:admin@hao4k.cn

Copyright  2019-2020  Hao4K影音粤公网安备 44030302001429号    ( 粤ICP备18155646号-1 )|网站地图