专注4K家庭影音, 服务千万家庭影音发烧友!

[美剧] 青年维兰德 第一季4k Young.Wallander.S01.2160p.NF.WEBRip.x265.10bit.HDR.DDP5.1-4k美剧下载

大红色 发表于 2020-10-21 06:36:20 | 显示全部楼层
电视剧频道
电视剧封面:
电视剧名: 青年维兰德 第一季4k
年  代: 2020  
国  家: -
类  别: 犯罪 
语  言: -
字  幕: -
上映日期: 2020-09-03
文件格式: mkv    
视频效果: 4K(3840x2160)    
资源大小: 21.30 GB
片  长: -
导  演: 奥利·恩勒森 / 简·约翰森
剧情简介: 故事讲述刚从警察学院毕业的库尔特·维兰德(帕森饰)目睹了一场残忍的自杀式案件,在警长汉伯格(理查德·迪兰饰)的支持下,他不得不查清一系列的罪案。
青年神探维兰德(港/台) / 年轻的维兰德/青年维兰德 第一季4k Young.Wallander.S01.2160p.NF.WEBRip.x265.10bit.HDR.DDP5.1-4k美剧信息
  1. Video
  2. ID : 1
  3. Format : HEVC
  4. Format/Info : High Efficiency Video Coding
  5. Format profile : Main 10@L5.1@High
  6. HDR format : SMPTE ST 2086, HDR10 compatible
  7. Codec ID : V_MPEGH/ISO/HEVC
  8. Duration : 51 min 58 s
  9. Bit rate : 10.4 Mb/s
  10. Width : 3 840 pixels
  11. Height : 1 920 pixels
  12. Display aspect ratio : 2.000
  13. Frame rate mode : Constant
  14. Frame rate : 25.000 FPS
  15. Color space : YUV
  16. Chroma subsampling : 4:2:0 (Type 2)
  17. Bit depth : 10 bits
  18. Bits/(Pixel*Frame) : 0.056
  19. Stream size : 3.77 GiB (94%)
  20. Writing library : x265 3.4+2-73ca1d7be377:[Windows][GCC 10.2.1][64 bit] 10bit
  21. Encoding settings : cpuid=1111039 / frame-threads=4 / numa-pools=16 / wpp / no-pmode / no-pme / no-psnr / no-ssim / log-level=2 / input-csp=1 / input-res=3840x1920 / interlace=0 / total-frames=0 / level-idc=51 / high-tier=1 / uhd-bd=0 / ref=4 / no-allow-non-conformance / repeat-headers / annexb / no-aud / no-hrd / info / hash=0 / no-temporal-layers / no-open-gop / min-keyint=25 / keyint=250 / gop-lookahead=0 / bframes=3 / b-adapt=2 / b-pyramid / bframe-bias=0 / rc-lookahead=20 / lookahead-slices=8 / scenecut=40 / hist-scenecut=0 / radl=0 / no-splice / no-intra-refresh / ctu=64 / min-cu-size=8 / no-rect / no-amp / max-tu-size=32 / tu-inter-depth=1 / tu-intra-depth=1 / limit-tu=0 / rdoq-level=0 / dynamic-rd=0.00 / no-ssim-rd / signhide / no-tskip / nr-intra=0 / nr-inter=0 / no-constrained-intra / no-strong-intra-smoothing / max-merge=3 / limit-refs=1 / no-limit-modes / me=1 / subme=2 / merange=57 / temporal-mvp / no-frame-dup / no-hme / weightp / no-weightb / no-analyze-src-pics / deblock=-3:-3 / no-sao / no-sao-non-deblock / rd=3 / selective-sao=0 / early-skip / rskip / no-fast-intra / no-tskip-fast / no-cu-lossless / b-intra / no-splitrd-skip / rdpenalty=0 / psy-rd=2.00 / psy-rdoq=0.00 / no-rd-refine / no-lossless / cbqpoffs=0 / crqpoffs=0 / rc=crf / crf=19.0 / qcomp=0.60 / qpstep=4 / stats-write=0 / stats-read=0 / vbv-maxrate=160000 / vbv-bufsize=160000 / vbv-init=0.9 / crf-max=0.0 / crf-min=0.0 / ipratio=1.40 / pbratio=1.30 / aq-mode=2 / aq-strength=1.00 / no-cutree / zone-count=0 / no-strict-cbr / qg-size=32 / no-rc-grain / qpmax=69 / qpmin=0 / no-const-vbv / sar=1 / overscan=0 / videoformat=5 / range=0 / colorprim=9 / transfer=16 / colormatrix=9 / chromaloc=1 / chromaloc-top=2 / chromaloc-bottom=2 / display-window=0 / master-display=G(13250,34500)B(7500,3000)R(34000,16000)WP(15635,16450)L(10000000,1) / cll=1277,706 / min-luma=0 / max-luma=1023 / log2-max-poc-lsb=8 / vui-timing-info / vui-hrd-info / slices=1 / no-opt-qp-pps / no-opt-ref-list-length-pps / no-multi-pass-opt-rps / scenecut-bias=0.05 / hist-threshold=0.01 / no-opt-cu-delta-qp / no-aq-motion / hdr10 / hdr10-opt / no-dhdr10-opt / no-idr-recovery-sei / analysis-reuse-level=0 / analysis-save-reuse-level=0 / analysis-load-reuse-level=0 / scale-factor=0 / refine-intra=0 / refine-inter=0 / refine-mv=1 / refine-ctu-distortion=0 / no-limit-sao / ctu-info=0 / no-lowpass-dct / refine-analysis-type=0 / copy-pic=1 / max-ausize-factor=1.0 / no-dynamic-refine / no-single-sei / no-hevc-aq / no-svt / no-field / qp-adaptation-range=1.00 / no-scenecut-aware-qpconformance-window-offsets / right=0 / bottom=0 / decoder-max-rate=0
  22. Language : English
  23. Default : Yes
  24. Forced : No
  25. Color range : Limited
  26. Color primaries : BT.2020
  27. Transfer characteristics : PQ
  28. Matrix coefficients : BT.2020 non-constant
  29. Mastering display color primaries : Display P3
  30. Mastering display luminance : min: 0.0001 cd/m2, max: 1000 cd/m2
  31. Maximum Content Light Level : 1277 cd/m2
  32. Maximum Frame-Average Light Level : 706 cd/m2

  33. Audio
  34. ID : 2
  35. Format : E-AC-3
  36. Format/Info : Enhanced AC-3
  37. Commercial name : Dolby Digital Plus
  38. Codec ID : A_EAC3
  39. Duration : 52 min 32 s
  40. Bit rate mode : Constant
  41. Bit rate : 640 kb/s
  42. Channel(s) : 6 channels
  43. Channel layout : L R C LFE Ls Rs
  44. Sampling rate : 48.0 kHz
  45. Frame rate : 31.250 FPS (1536 SPF)
  46. Compression mode : Lossy
  47. Delay relative to video : 5 ms
  48. Stream size : 240 MiB (6%)
  49. Title : Dolby Digital Plus
  50. Language : English
  51. Service kind : Complete Main
  52. Default : No
  53. Forced : No

  54. Text
  55. ID : 3
  56. Format : UTF-8
  57. Codec ID : S_TEXT/UTF8
  58. Codec ID/Info : UTF-8 Plain Text
  59. Duration : 51 min 41 s
  60. Bit rate : 61 b/s
  61. Count of elements : 704
  62. Stream size : 23.3 KiB (0%)
  63. Language : English
  64. Default : No
  65. Forced : No
复制代码

青年神探维兰德(港/台) / 年轻的维兰德/青年维兰德 第一季4k Young.Wallander.S01.2160p.NF.WEBRip.x265.10bit.HDR.DDP5.1-4k美剧下载

青年维兰德 第一季4k Young.Wallander.S01.2160p.NF.WEBRip.x265.10bit.HDR.DDP5.1【21.30 GB】
青年维兰德 第一季4k Young.Wallander.S01.2160p.NF.WEBRip.x265.10bit.HDR.DDP5.1-iN.torrent
(54.28 KB)
回复

使用道具 举报

发烧友评论8

倒序浏览
wxw911911911 发表于 2020-11-2 10:38:44 | 显示全部楼层
终于等到了,感谢楼主的精彩分享
回复 支持 反对

使用道具 举报

wxw911911911 发表于 2020-11-2 01:56:00 | 显示全部楼层
谢谢分享。谢谢分享。谢谢分享
回复 支持 反对

使用道具 举报

464009921 发表于 2020-10-31 07:30:25 | 显示全部楼层
不错的电视剧
回复 支持 反对

使用道具 举报

jeckli 发表于 2020-10-25 08:54:36 | 显示全部楼层
谢谢分享。谢谢分享。谢谢分享。
回复 支持 反对

使用道具 举报

xv6950 发表于 2020-10-24 15:47:05 | 显示全部楼层
4k的美剧中文字幕不好找
回复 支持 反对

使用道具 举报

HWyt 发表于 2020-10-23 18:37:00 | 显示全部楼层
沙发?
谢谢分享。
回复 支持 反对

使用道具 举报

您需要登录后才可以回帖 登录 | 立即注册

本版积分规则

在线客服

在线客服

服务时间 9:00—18:00

返回顶部

关注微信公众号第一时间推送精彩

官方微信

手机访问

Hao4K影音

专注4k家庭影音,提供家庭影音社区,家庭影音器材库,影音问答平台,影音商城,服务千万家庭影音用户。

本站内容部分由用户自主分享和转载自互联网,转载目的在于传递更多信息,并不代表本网赞同其观点和对其真实性负责。

如有侵权、违反国家法律政策行为,请联系我们,我们会第一时间及时清除和处理!

举报反馈邮箱:admin@hao4k.cn

Copyright  2019-2020  Hao4K影音粤公网安备 44030302001429号    ( 粤ICP备18155646号-1 )|网站地图