专注4K家庭影音, 服务千万家庭影音发烧友!

精神错乱4K.Unhinged.2020.HDR.2160p.WEB.H265-4k电影下载

 关闭
青衫烟雨 发表于 2020-10-24 12:26:30 | 显示全部楼层
电影频道
电影封面:
片  名: 精神错乱4K
电影分类: 惊悚 
国  家: 美国 
年  代: 2020年
分 辨 率: 4K(3840x2160)
电影格式: MKV|REMUX 
画质标准: HDR 
音质编码: Dolby Digital Plus Audio 
电影声道: 5.1声道 
帧数/FPS: 23.976 FPS
电影语言: 英文原版 
资源大小: 9..59 GB
导  演: 德瑞克·伯特
豆瓣评分: 6.1 分
中文字幕: /thread-50662-1-1.html
剧情简介: 讲述两辆车路上发生摩擦,“公路泄愤”升级:克劳饰演的男子抑制不住愤怒发飙了,拿着锤子和刀追到了对方母子家里,破坏、跟踪、撞车、纠缠身边人……
爆怒时速(港) / 超危险驾驶(台) / 精神失常/精神错乱4K.Unhinged.2020.HDR.2160p.WEB.H265-4k电影信息
  1. Video
  2. ID : 1
  3. Format : HEVC
  4. Format/Info : High Efficiency Video Coding
  5. Format profile : Main 10@L5@Main
  6. Codec ID : V_MPEGH/ISO/HEVC
  7. Duration : 1 h 30 min
  8. Bit rate : 14.8 Mb/s
  9. Width : 3 840 pixels
  10. Height : 2 160 pixels
  11. Display aspect ratio : 16:9
  12. Frame rate mode : Constant
  13. Frame rate : 23.976 (24000/1001) FPS
  14. Color space : YUV
  15. Chroma subsampling : 4:2:0 (Type 2)
  16. Bit depth : 10 bits
  17. Bits/(Pixel*Frame) : 0.074
  18. Stream size : 9.32 GiB (98%)
  19. Language : English
  20. Default : Yes
  21. Forced : No
  22. Color range : Limited
  23. Color primaries : BT.2020
  24. Transfer characteristics : PQ
  25. Matrix coefficients : BT.2020 non-constant

  26. Audio
  27. ID : 2
  28. Format : E-AC-3
  29. Format/Info : Enhanced AC-3
  30. Commercial name : Dolby Digital Plus
  31. Codec ID : A_EAC3
  32. Duration : 1 h 30 min
  33. Bit rate mode : Constant
  34. Bit rate : 256 kb/s
  35. Channel(s) : 6 channels
  36. Channel layout : L R C LFE Ls Rs
  37. Sampling rate : 48.0 kHz
  38. Frame rate : 31.250 FPS (1536 SPF)
  39. Compression mode : Lossy
  40. Stream size : 165 MiB (2%)
  41. Title : English
  42. Language : English
  43. Service kind : Complete Main
  44. Default : Yes
  45. Forced : No

  46. Text
  47. ID : 3
  48. Format : UTF-8
  49. Codec ID : S_TEXT/UTF8
  50. Codec ID/Info : UTF-8 Plain Text
  51. Duration : 1 h 21 min
  52. Bit rate : 61 b/s
  53. Count of elements : 1193
  54. Stream size : 36.5 KiB (0%)
  55. Title : English (SDH)
  56. Language : English
  57. Default : No
  58. Forced : No
复制代码

爆怒时速(港) / 超危险驾驶(台) / 精神失常/精神错乱4K.Unhinged.2020.HDR.2160p.WEB.H265-4k电影下载

精神错乱4K.Unhinged.2020.HDR.2160p.WEB.H265【9.59 GB】
精神错乱4K.Unhinged.2020.HDR.2160p.WEB.H265-HOTLiPS.torrent
(48.63 KB, 售价: 2 K币)
回复

使用道具 举报

您需要登录后才可以回帖 登录 | 立即注册

本版积分规则

在线客服

在线客服

服务时间 9:00—18:00

返回顶部

关注微信公众号第一时间推送精彩

官方微信

手机访问

Hao4K影音

专注4k家庭影音,提供家庭影音社区,家庭影音器材库,影音问答平台,影音商城,服务千万家庭影音用户。

本站内容部分由用户自主分享和转载自互联网,转载目的在于传递更多信息,并不代表本网赞同其观点和对其真实性负责。

如有侵权、违反国家法律政策行为,请联系我们,我们会第一时间及时清除和处理!

举报反馈邮箱:admin@hao4k.cn

Copyright  2019-2020  Hao4K影音粤公网安备 44030302001429号    ( 粤ICP备18155646号-1 )|网站地图