专注4K家庭影音, 服务千万家庭影音发烧友!

[美剧] 蔚蓝海岸 第三季4k Riviera.S03.INTERNAL.2160p.AUHDTV.x265-4k美剧下载

大红色 发表于 2020-10-27 23:03:55 | 显示全部楼层
电视剧频道
电视剧封面:
电视剧名: 蔚蓝海岸 第三季4k
年  代: 2020  
国  家: 美国
类  别: 惊悚 剧情 
语  言: 英语
字  幕: 英文原版
上映日期: 2020-10-15
文件格式: mkv    
视频效果: 4K(3840x2160)    
资源大小: 50.89 GB
片  长: 45 分钟
导  演: 汉斯·贺伯斯
剧情简介:  A third season of Riviera has been confirmed by Julia Stiles to be released on Sky Atlantic next year in 2020.
  We believe we’ll be seeing Georgina Clios journey to an assortment of new locations in her continued effort to maintain her place at the top of the art-dealing scene. Georgina’s enemies are on the verge of unravelling the secrets and lies that concern her husband Constantine.
  Series three will see Georgina escape the French Riviera in favour of a host of exotic locations. For her to take a detour to Venice is certainly a bit different, but a trip to Argentina just highlights the new heights that series three will reach. There’s been no word on other locations and to what extent the Côte d’Azur will feature, but you can imagine Georgina will be greeted by a breadth of intriguing new characters along the way.
蔚蓝海岸 第三季4k Riviera.S03.INTERNAL.2160p.AUHDTV.x265-4k美剧信息
  1. Video
  2. ID : 1
  3. Format : HEVC
  4. Format/Info : High Efficiency Video Coding
  5. Format profile : Main 10@L5.2@High
  6. Codec ID : V_MPEGH/ISO/HEVC
  7. Duration : 45 min 32 s
  8. Bit rate : 24.0 Mb/s
  9. Width : 3 840 pixels
  10. Height : 2 160 pixels
  11. Display aspect ratio : 16:9
  12. Frame rate mode : Constant
  13. Frame rate : 50.000 FPS
  14. Color space : YUV
  15. Chroma subsampling : 4:2:0
  16. Bit depth : 10 bits
  17. Bits/(Pixel*Frame) : 0.058
  18. Stream size : 7.62 GiB (98%)
  19. Writing library : x265 3.4+26-ga82c6c7a7:[Windows][GCC 10.2.0][64 bit] 10bit
  20. Encoding settings : cpuid=1111039 / frame-threads=3 / numa-pools=12 / wpp / no-pmode / no-pme / no-psnr / no-ssim / log-level=2 / input-csp=1 / input-res=3840x2160 / interlace=0 / total-frames=0 / level-idc=52 / high-tier=1 / uhd-bd=0 / ref=4 / no-allow-non-conformance / repeat-headers / annexb / aud / hrd / info / hash=0 / no-temporal-layers / open-gop / min-keyint=25 / keyint=250 / gop-lookahead=0 / bframes=4 / b-adapt=2 / b-pyramid / bframe-bias=0 / rc-lookahead=25 / lookahead-slices=4 / scenecut=40 / hist-scenecut=0 / radl=0 / no-splice / no-intra-refresh / ctu=64 / min-cu-size=8 / rect / no-amp / max-tu-size=32 / tu-inter-depth=1 / tu-intra-depth=1 / limit-tu=0 / rdoq-level=2 / dynamic-rd=0.00 / no-ssim-rd / signhide / no-tskip / nr-intra=0 / nr-inter=0 / no-constrained-intra / strong-intra-smoothing / max-merge=3 / limit-refs=3 / limit-modes / me=3 / subme=3 / merange=57 / temporal-mvp / no-frame-dup / no-hme / weightp / no-weightb / no-analyze-src-pics / deblock=0:0 / sao / no-sao-non-deblock / rd=4 / selective-sao=4 / no-early-skip / rskip / no-fast-intra / no-tskip-fast / no-cu-lossless / no-b-intra / no-splitrd-skip / rdpenalty=0 / psy-rd=2.00 / psy-rdoq=1.00 / no-rd-refine / no-lossless / cbqpoffs=0 / crqpoffs=0 / rc=crf / crf=16.0 / qcomp=0.60 / qpstep=4 / stats-write=0 / stats-read=0 / vbv-maxrate=240000 / vbv-bufsize=240000 / vbv-init=0.9 / min-vbv-fullness=50.0 / max-vbv-fullness=80.0 / crf-max=0.0 / crf-min=0.0 / ipratio=1.40 / pbratio=1.30 / aq-mode=2 / aq-strength=1.00 / cutree / zone-count=0 / no-strict-cbr / qg-size=32 / no-rc-grain / qpmax=69 / qpmin=0 / no-const-vbv / sar=1 / overscan=0 / videoformat=5 / range=0 / colorprim=1 / transfer=1 / colormatrix=1 / chromaloc=0 / display-window=0 / cll=0,0 / min-luma=0 / max-luma=1023 / log2-max-poc-lsb=8 / vui-timing-info / vui-hrd-info / slices=1 / no-opt-qp-pps / no-opt-ref-list-length-pps / no-multi-pass-opt-rps / scenecut-bias=0.05 / hist-threshold=0.03 / no-opt-cu-delta-qp / no-aq-motion / no-hdr10 / no-hdr10-opt / no-dhdr10-opt / no-idr-recovery-sei / analysis-reuse-level=0 / analysis-save-reuse-level=0 / analysis-load-reuse-level=0 / scale-factor=0 / refine-intra=0 / refine-inter=0 / refine-mv=1 / refine-ctu-distortion=0 / no-limit-sao / ctu-info=0 / no-lowpass-dct / refine-analysis-type=0 / copy-pic=1 / max-ausize-factor=1.0 / no-dynamic-refine / no-single-sei / no-hevc-aq / no-svt / no-field / qp-adaptation-range=1.00 / no-scenecut-aware-qpconformance-window-offsets / right=0 / bottom=0 / decoder-max-rate=0 / no-vbv-live-multi-pass
  21. Default : Yes
  22. Forced : No
  23. Color range : Limited
  24. Color primaries : BT.709
  25. Transfer characteristics : BT.709
  26. Matrix coefficients : BT.709

  27. Audio
  28. ID : 2
  29. Format : AC-3
  30. Format/Info : Audio Coding 3
  31. Commercial name : Dolby Digital
  32. Codec ID : A_AC3
  33. Duration : 45 min 32 s
  34. Bit rate mode : Constant
  35. Bit rate : 384 kb/s
  36. Channel(s) : 2 channels
  37. Channel layout : L R
  38. Sampling rate : 48.0 kHz
  39. Frame rate : 31.250 FPS (1536 SPF)
  40. Compression mode : Lossy
  41. Delay relative to video : -200 ms
  42. Stream size : 125 MiB (2%)
  43. Service kind : Complete Main
  44. Default : Yes
  45. Forced : No
复制代码

蔚蓝海岸 第三季4k Riviera.S03.INTERNAL.2160p.AUHDTV.x265-4k美剧下载

蔚蓝海岸 第三季4k Riviera.S03.INTERNAL.2160p.AUHDTV.x265【50.89 GB】
[Hao4k]蔚蓝海岸 第三季4k Riviera.S03.INTERNAL.2160p.AUHDTV.x265-FaiLED[rartv].torrent
(128.33 KB)
回复

使用道具 举报

发烧友评论2

倒序浏览
HWyt 发表于 2020-11-1 10:24:40 | 显示全部楼层
没字幕?可惜了。
谢谢分享
回复 支持 反对

使用道具 举报

xndsh 发表于 2020-10-28 15:48:08 | 显示全部楼层
看过第一季不错的,只是可惜第二季开始么有字幕翻译,谢谢楼主了。
回复 支持 反对

使用道具 举报

您需要登录后才可以回帖 登录 | 立即注册

本版积分规则

在线客服

在线客服

服务时间 9:00—18:00

返回顶部

关注微信公众号第一时间推送精彩

官方微信

手机访问

Hao4K影音

专注4k家庭影音,提供家庭影音社区,家庭影音器材库,影音问答平台,影音商城,服务千万家庭影音用户。

本站内容部分由用户自主分享和转载自互联网,转载目的在于传递更多信息,并不代表本网赞同其观点和对其真实性负责。

如有侵权、违反国家法律政策行为,请联系我们,我们会第一时间及时清除和处理!

举报反馈邮箱:admin@hao4k.cn

Copyright  2019-2020  Hao4K影音粤公网安备 44030302001429号    ( 粤ICP备18155646号-1 )|网站地图