专注4K家庭影音, 服务千万家庭影音发烧友!

[美剧] 白兔计划 第一季4K White.Rabbit.Project.S01.2160p.NF.WEBRip.DD5.1.x264-美剧下载

影音人 发表于 2020-10-29 17:12:29 | 显示全部楼层
电视剧频道
电视剧封面:
电视剧名: 白兔计划 第一季4K
年  代: 2020  
国  家: 美国
类  别: 纪录片 
语  言: 英语
字  幕: 英文原版
上映日期: 2016-12-09
文件格式: mkv    
视频效果: 4K(3840x2160)    
资源大小: 113.75 GB
片  长: 50 分钟
导  演: 卡莉·拜伦 / 托瑞·贝莱西 / 今原真申
剧情简介: Netflix预订《流言终结者 Mythbusters》制作公司Beyond Productions的新无剧本节目《未知项目 White Rabbit Project》 ,并且由前流言终结者 Kari Byron﹑Tory Belleci及Grant Imahar当主持。该节目在美国时间12月9日放出。
  Kari Byron﹑Tory Belleci及Grant Imahar在《未知项目》 将使用《流言终结者》中磨练的科学研究、侦查技术,调查在文化、科学、历史界中各种奇怪、神秘的事件;在他们的仔细科研下,题目包括越狱、超科技、拦劫、疯狂的二战武器等,在每集中会有实验、建设、测试,以一一验证事件背后的真相。
未知项目/白兔计划 第一季4K White.Rabbit.Project.S01.2160p.NF.WEBRip.DD5.1.x264-美剧信息
  1. Video
  2. ID : 1
  3. Format : AVC
  4. Format/Info : Advanced Video Codec
  5. Format profile : High@L5.1
  6. Format settings : CABAC / 5 Ref Frames
  7. Format settings, CABAC : Yes
  8. Format settings, Reference frames : 5 frames
  9. Codec ID : V_MPEG4/ISO/AVC
  10. Duration : 47 min 55 s
  11. Bit rate : 39.0 Mb/s
  12. Width : 3 840 pixels
  13. Height : 2 024 pixels
  14. Display aspect ratio : 1.897
  15. Frame rate mode : Constant
  16. Frame rate : 23.976 (24000/1001) FPS
  17. Color space : YUV
  18. Chroma subsampling : 4:2:0
  19. Bit depth : 8 bits
  20. Scan type : Progressive
  21. Bits/(Pixel*Frame) : 0.209
  22. Stream size : 13.0 GiB (99%)
  23. Writing library : x264 core 148 r2638 7599210
  24. Encoding settings : cabac=1 / ref=5 / deblock=1:-3:-3 / analyse=0x3:0x133 / me=umh / subme=10 / psy=1 / psy_rd=1.00:0.00 / mixed_ref=1 / me_range=48 / chroma_me=1 / trellis=2 / 8x8dct=1 / cqm=0 / deadzone=21,11 / fast_pskip=1 / chroma_qp_offset=-2 / threads=12 / lookahead_threads=2 / sliced_threads=0 / nr=0 / decimate=0 / interlaced=0 / bluray_compat=0 / constrained_intra=0 / bframes=8 / b_pyramid=2 / b_adapt=2 / b_bias=0 / direct=3 / weightb=1 / open_gop=0 / weightp=2 / keyint=240 / keyint_min=23 / scenecut=40 / intra_refresh=0 / rc_lookahead=60 / rc=crf / mbtree=1 / crf=17.0 / qcomp=0.70 / qpmin=0 / qpmax=69 / qpstep=4 / vbv_maxrate=300000 / vbv_bufsize=300000 / crf_max=0.0 / nal_hrd=none / filler=0 / ip_ratio=1.40 / aq=1:0.70
  25. Default : Yes
  26. Forced : No

  27. Audio
  28. ID : 2
  29. Format : AC-3
  30. Format/Info : Audio Coding 3
  31. Commercial name : Dolby Digital
  32. Codec ID : A_AC3
  33. Duration : 47 min 55 s
  34. Bit rate mode : Constant
  35. Bit rate : 384 kb/s
  36. Channel(s) : 6 channels
  37. Channel layout : L R C LFE Ls Rs
  38. Sampling rate : 48.0 kHz
  39. Frame rate : 31.250 FPS (1536 SPF)
  40. Compression mode : Lossy
  41. Stream size : 132 MiB (1%)
  42. Language : English
  43. Service kind : Complete Main
  44. Default : Yes
  45. Forced : No

  46. Text #1
  47. ID : 3
  48. Format : UTF-8
  49. Codec ID : S_TEXT/UTF8
  50. Codec ID/Info : UTF-8 Plain Text
  51. Duration : 46 min 27 s
  52. Bit rate : 101 b/s
  53. Count of elements : 786
  54. Stream size : 34.5 KiB (0%)
  55. Title : English
  56. Language : English
  57. Default : No
  58. Forced : No

  59. Text #2
  60. ID : 4
  61. Format : UTF-8
  62. Codec ID : S_TEXT/UTF8
  63. Codec ID/Info : UTF-8 Plain Text
  64. Duration : 43 min 27 s
  65. Bit rate : 1 b/s
  66. Count of elements : 28
  67. Stream size : 622 Bytes (0%)
  68. Title : English (Forced)
  69. Language : English
  70. Default : No
  71. Forced : No

  72. Text #3
  73. ID : 5
  74. Format : UTF-8
  75. Codec ID : S_TEXT/UTF8
  76. Codec ID/Info : UTF-8 Plain Text
  77. Duration : 46 min 29 s
  78. Bit rate : 104 b/s
  79. Count of elements : 826
  80. Stream size : 35.7 KiB (0%)
  81. Title : English (SDH)
  82. Language : English
  83. Default : No
  84. Forced : No

  85. Text #4
  86. ID : 6
  87. Format : UTF-8
  88. Codec ID : S_TEXT/UTF8
  89. Codec ID/Info : UTF-8 Plain Text
  90. Duration : 47 min 44 s
  91. Bit rate : 94 b/s
  92. Count of elements : 790
  93. Stream size : 32.9 KiB (0%)
  94. Title : French
  95. Language : French
  96. Default : No
  97. Forced : No

  98. Text #5
  99. ID : 7
  100. Format : UTF-8
  101. Codec ID : S_TEXT/UTF8
  102. Codec ID/Info : UTF-8 Plain Text
  103. Duration : 47 min 44 s
  104. Bit rate : 103 b/s
  105. Count of elements : 795
  106. Stream size : 36.2 KiB (0%)
  107. Title : German
  108. Language : German
  109. Default : No
  110. Forced : No

  111. Text #6
  112. ID : 8
  113. Format : UTF-8
  114. Codec ID : S_TEXT/UTF8
  115. Codec ID/Info : UTF-8 Plain Text
  116. Duration : 47 min 44 s
  117. Bit rate : 95 b/s
  118. Count of elements : 817
  119. Stream size : 33.5 KiB (0%)
  120. Title : Italian
  121. Language : Italian
  122. Default : No
  123. Forced : No

  124. Text #7
  125. ID : 9
  126. Format : UTF-8
  127. Codec ID : S_TEXT/UTF8
  128. Codec ID/Info : UTF-8 Plain Text
  129. Duration : 47 min 34 s
  130. Bit rate : 106 b/s
  131. Count of elements : 799
  132. Stream size : 37.0 KiB (0%)
  133. Title : Spanish
  134. Language : Spanish
  135. Default : No
  136. Forced : No
复制代码

未知项目/白兔计划 第一季4K White.Rabbit.Project.S01.2160p.NF.WEBRip.DD5.1.x264-美剧下载

白兔计划 第一季4K White.Rabbit.Project.S01.2160p.NF.WEBRip.DD5.1.x264【113.75 GB】
[Hao4k]白兔计划 第一季4K White.Rabbit.Project.S01.2160p.NF.WEBRip.DD5.1.x264-ViS.torrent
(285.85 KB)
回复

使用道具 举报

发烧友评论1

倒序浏览
您需要登录后才可以回帖 登录 | 立即注册

本版积分规则

在线客服

在线客服

服务时间 9:00—18:00

返回顶部

关注微信公众号第一时间推送精彩

官方微信

手机访问

Hao4K影音

专注4k家庭影音,提供家庭影音社区,家庭影音器材库,影音问答平台,影音商城,服务千万家庭影音用户。

本站内容部分由用户自主分享和转载自互联网,转载目的在于传递更多信息,并不代表本网赞同其观点和对其真实性负责。

如有侵权、违反国家法律政策行为,请联系我们,我们会第一时间及时清除和处理!

举报反馈邮箱:admin@hao4k.cn

Copyright  2019-2020  Hao4K影音粤公网安备 44030302001429号    ( 粤ICP备18155646号-1 )|网站地图