专注4K家庭影音, 服务千万家庭影音发烧友!

[待验证4K资源] 杀死比尔4k Kill Bill Vol.1 2003 2160p-4k电影下载

碧池 发表于 2020-10-30 17:02:55 | 显示全部楼层
电影频道
电影封面:
片  名: 杀死比尔4k
电影分类: 动作 犯罪 惊悚 
国  家: 美国 
年  代: 00年代
分 辨 率: 4K(3840x2160)
电影格式: MKV|REMUX 
画质标准: 其他 
音质编码: 其他AAC 
电影声道: 5.1声道 
帧数/FPS: 23.976 FPS
电影语言: 英文原版 
资源大小: 5.2 GB
导  演: 昆汀·塔伦蒂诺
豆瓣评分: 8.3 分
中文字幕: /thread-50827-1-1.html
剧情简介: 这是一部令人眼花缭乱,绝对能带给您感官刺激的动作电影。一个新娘(乌玛•瑟曼Uma Thurman饰)在自己的婚礼上遭到了暗杀,婚礼瞬间变成了一片狼籍的红色。幸运的是,新娘并没有就此消失,而是在四年后苏醒过来,并且接受了高强度的各种各样的武术训练,开始踏上了自己的复仇之路,在世界各地寻找给自己带来灾难的人。当然,她也遇到了许多阻碍。日本杀手(刘玉玲饰)就是其中之一。
  这场红色的复仇之路究竟伸向何处,又有多曲折呢?
标杀令(港) / 追杀比尔(台) / 杀死比尔:第一卷 / 谋杀比尔杀死比尔4k Kill Bill Vol.1 2003 + Featurettes 2160p Bluray x265 HEVC AI 10bit AAC 5.1 -4k电影信息
  1. Video
  2. ID : 1
  3. Format : HEVC
  4. Format/Info : High Efficiency Video Coding
  5. Codec ID : V_MPEGH/ISO/HEVC
  6. Duration : 1 h 50 min
  7. Bit rate : 6 000 kb/s
  8. Width : 3 824 pixels
  9. Height : 1 600 pixels
  10. Display aspect ratio : 2.40:1
  11. Frame rate mode : Constant
  12. Frame rate : 23.976 (24000/1001) FPS
  13. Color space : YUV
  14. Chroma subsampling : 4:2:0
  15. Bit depth : 10 bits
  16. Bits/(Pixel*Frame) : 0.041
  17. Stream size : 4.64 GiB (93%)
  18. Writing library : x265 3.2+9-971180b100f8:[Windows][GCC 9.2.0][64 bit] 10bit
  19. Encoding settings : cpuid=1111039 / frame-threads=4 / numa-pools=16 / wpp / no-pmode / no-pme / no-psnr / ssim / log-level=2 / input-csp=1 / input-res=3824x1600 / interlace=0 / total-frames=159288 / level-idc=0 / high-tier=1 / uhd-bd=0 / ref=4 / no-allow-non-conformance / no-repeat-headers / annexb / no-aud / no-hrd / info / hash=0 / no-temporal-layers / open-gop / min-keyint=23 / keyint=250 / gop-lookahead=0 / bframes=8 / b-adapt=2 / b-pyramid / bframe-bias=40 / rc-lookahead=80 / lookahead-slices=4 / scenecut=40 / radl=0 / no-splice / no-intra-refresh / ctu=64 / min-cu-size=8 / rect / no-amp / max-tu-size=32 / tu-inter-depth=1 / tu-intra-depth=1 / limit-tu=0 / rdoq-level=2 / dynamic-rd=0.00 / ssim-rd / signhide / no-tskip / nr-intra=0 / nr-inter=0 / constrained-intra / strong-intra-smoothing / max-merge=3 / limit-refs=3 / limit-modes / me=3 / subme=3 / merange=57 / temporal-mvp / no-frame-dup / no-hme / weightp / no-weightb / no-analyze-src-pics / deblock=0:0 / sao / no-sao-non-deblock / rd=4 / selective-sao=4 / early-skip / rskip / no-fast-intra / no-tskip-fast / no-cu-lossless / no-b-intra / splitrd-skip / rdpenalty=0 / psy-rd=3.50 / psy-rdoq=2.50 / no-rd-refine / no-lossless / cbqpoffs=0 / crqpoffs=0 / rc=abr / bitrate=6000 / qcomp=0.60 / qpstep=4 / stats-write=0 / stats-read=2 / cplxblur=20.0 / qblur=0.5 / ipratio=1.40 / pbratio=1.30 / aq-mode=3 / aq-strength=0.40 / cutree / zone-count=0 / no-strict-cbr / qg-size=32 / no-rc-grain / qpmax=69 / qpmin=0 / no-const-vbv / sar=0 / overscan=0 / videoformat=5 / range=0 / colorprim=2 / transfer=2 / colormatrix=2 / chromaloc=0 / display-window=0 / cll=0,0 / min-luma=0 / max-luma=1023 / log2-max-poc-lsb=8 / vui-timing-info / vui-hrd-info / slices=1 / no-opt-qp-pps / no-opt-ref-list-length-pps / multi-pass-opt-rps / scenecut-bias=0.05 / no-opt-cu-delta-qp / no-aq-motion / no-hdr / no-hdr-opt / no-dhdr10-opt / no-idr-recovery-sei / analysis-load / analysis-reuse-level=10 / scale-factor=0 / refine-intra=0 / refine-inter=0 / refine-mv=1 / refine-ctu-distortion=0 / limit-sao / ctu-info=0 / no-lowpass-dct / refine-analysis-type=0 / copy-pic=1 / max-ausize-factor=1.0 / no-dynamic-refine / no-single-sei / no-hevc-aq / no-svt / no-field / qp-adaptation-range=1.00
  20. Default : Yes
  21. Forced : No

  22. Audio #1
  23. ID : 2
  24. Format : AAC
  25. Format/Info : Advanced Audio Codec
  26. Format profile : LC
  27. Codec ID : A_AAC
  28. Duration : 1 h 50 min
  29. Bit rate : 372 kb/s
  30. Channel(s) : 6 channels
  31. Channel positions : Front: L C R, Side: L R, LFE
  32. Sampling rate : 48.0 kHz
  33. Frame rate : 46.875 FPS (1024 spf)
  34. Compression mode : Lossy
  35. Delay relative to video : 9 ms
  36. Stream size : 295 MiB (6%)
  37. Title : Surround 5.1
  38. Language : English
  39. Default : No
  40. Forced : No

  41. Audio #2
  42. ID : 3
  43. Format : AAC
  44. Format/Info : Advanced Audio Codec
  45. Format profile : LC
  46. Codec ID : A_AAC
  47. Duration : 1 h 50 min
  48. Bit rate : 81.6 kb/s
  49. Channel(s) : 2 channels
  50. Channel positions : Front: L R
  51. Sampling rate : 48.0 kHz
  52. Frame rate : 46.875 FPS (1024 spf)
  53. Compression mode : Lossy
  54. Delay relative to video : 9 ms
  55. Stream size : 64.6 MiB (1%)
  56. Language : German
  57. Default : No
  58. Forced : No

  59. Subtitle #1
  60. ID : 4
  61. Format : PGS
  62. Muxing mode : zlib
  63. Codec ID : S_HDMV/PGS
  64. Codec ID/Info : Picture based subtitle format used on BDs/HD-DVDs
  65. Duration : 1 h 41 min
  66. Bit rate : 12.2 kb/s
  67. Count of elements : 1351
  68. Stream size : 8.92 MiB (0%)
  69. Language : English
  70. Default : No
  71. Forced : No

  72. Subtitle #2
  73. ID : 5
  74. Format : VobSub
  75. Muxing mode : zlib
  76. Codec ID : S_VOBSUB
  77. Codec ID/Info : Picture based subtitle format used on DVDs
  78. Duration : 1 h 42 min
  79. Bit rate : 4 158 b/s
  80. Count of elements : 850
  81. Stream size : 3.05 MiB (0%)
  82. Language : English
  83. Default : No
  84. Forced : No

  85. Subtitle #3
  86. ID : 6
  87. Format : VobSub
  88. Muxing mode : zlib
  89. Codec ID : S_VOBSUB
  90. Codec ID/Info : Picture based subtitle format used on DVDs
  91. Duration : 1 h 42 min
  92. Bit rate : 4 230 b/s
  93. Count of elements : 624
  94. Stream size : 3.11 MiB (0%)
  95. Language : Russian
  96. Default : No
  97. Forced : No

  98. Subtitle #4
  99. ID : 7
  100. Format : VobSub
  101. Muxing mode : zlib
  102. Codec ID : S_VOBSUB
  103. Codec ID/Info : Picture based subtitle format used on DVDs
  104. Duration : 1 h 42 min
  105. Bit rate : 4 205 b/s
  106. Count of elements : 586
  107. Stream size : 3.09 MiB (0%)
  108. Language : German
  109. Default : No
  110. Forced : No

  111. Subtitle #5
  112. ID : 8
  113. Format : VobSub
  114. Muxing mode : zlib
  115. Codec ID : S_VOBSUB
  116. Codec ID/Info : Picture based subtitle format used on DVDs
  117. Duration : 990 ms
  118. Bit rate : 17.7 kb/s
  119. Count of elements : 1
  120. Stream size : 2.14 KiB (0%)
  121. Language : Russian
  122. Default : No
  123. Forced : No

  124. Subtitle #6
  125. ID : 9
  126. Format : VobSub
  127. Muxing mode : zlib
  128. Codec ID : S_VOBSUB
  129. Codec ID/Info : Picture based subtitle format used on DVDs
  130. Duration : 1 h 42 min
  131. Bit rate : 1 048 b/s
  132. Count of elements : 153
  133. Stream size : 786 KiB (0%)
  134. Language : German
  135. Default : No
  136. Forced : No

  137. Subtitle #7
  138. ID : 10
  139. Format : UTF-8
  140. Codec ID : S_TEXT/UTF8
  141. Codec ID/Info : UTF-8 Plain Text
  142. Duration : 1 h 42 min
  143. Bit rate : 26 b/s
  144. Count of elements : 476
  145. Stream size : 19.9 KiB (0%)
  146. Language : Danish
  147. Default : No
  148. Forced : No

  149. Subtitle #8
  150. ID : 11
  151. Format : UTF-8
  152. Codec ID : S_TEXT/UTF8
  153. Codec ID/Info : UTF-8 Plain Text
  154. Duration : 1 h 43 min
  155. Bit rate : 23 b/s
  156. Count of elements : 537
  157. Stream size : 18.2 KiB (0%)
  158. Language : Dutch
  159. Default : No
  160. Forced : No

  161. Subtitle #9
  162. ID : 12
  163. Format : UTF-8
  164. Codec ID : S_TEXT/UTF8
  165. Codec ID/Info : UTF-8 Plain Text
  166. Duration : 1 h 43 min
  167. Bit rate : 44 b/s
  168. Count of elements : 744
  169. Stream size : 33.7 KiB (0%)
  170. Language : Persian
  171. Default : No
  172. Forced : No

  173. Subtitle #10
  174. ID : 13
  175. Format : UTF-8
  176. Codec ID : S_TEXT/UTF8
  177. Codec ID/Info : UTF-8 Plain Text
  178. Duration : 1 h 50 min
  179. Bit rate : 24 b/s
  180. Count of elements : 665
  181. Stream size : 20.1 KiB (0%)
  182. Language : French
  183. Default : No
  184. Forced : No

  185. Subtitle #11
  186. ID : 14
  187. Format : UTF-8
  188. Codec ID : S_TEXT/UTF8
  189. Codec ID/Info : UTF-8 Plain Text
  190. Duration : 1 h 42 min
  191. Bit rate : 35 b/s
  192. Count of elements : 654
  193. Stream size : 26.6 KiB (0%)
  194. Language : Arabic
  195. Default : No
  196. Forced : No

  197. Subtitle #12
  198. ID : 15
  199. Format : UTF-8
  200. Codec ID : S_TEXT/UTF8
  201. Codec ID/Info : UTF-8 Plain Text
  202. Duration : 1 h 43 min
  203. Bit rate : 25 b/s
  204. Count of elements : 712
  205. Stream size : 19.3 KiB (0%)
  206. Language : Indonesian
  207. Default : No
  208. Forced : No

  209. Subtitle #13
  210. ID : 16
  211. Format : UTF-8
  212. Codec ID : S_TEXT/UTF8
  213. Codec ID/Info : UTF-8 Plain Text
  214. Duration : 1 h 42 min
  215. Bit rate : 23 b/s
  216. Count of elements : 475
  217. Stream size : 17.9 KiB (0%)
  218. Language : Norwegian
  219. Default : No
  220. Forced : No

  221. Subtitle #14
  222. ID : 17
  223. Format : UTF-8
  224. Codec ID : S_TEXT/UTF8
  225. Codec ID/Info : UTF-8 Plain Text
  226. Duration : 1 h 42 min
  227. Bit rate : 26 b/s
  228. Count of elements : 581
  229. Stream size : 19.9 KiB (0%)
  230. Language : Romanian
  231. Default : No
  232. Forced : No

  233. Subtitle #15
  234. ID : 18
  235. Format : UTF-8
  236. Codec ID : S_TEXT/UTF8
  237. Codec ID/Info : UTF-8 Plain Text
  238. Duration : 1 h 42 min
  239. Bit rate : 25 b/s
  240. Count of elements : 651
  241. Stream size : 19.1 KiB (0%)
  242. Language : Serbian
  243. Default : No
  244. Forced : No

  245. Subtitle #16
  246. ID : 19
  247. Format : UTF-8
  248. Codec ID : S_TEXT/UTF8
  249. Codec ID/Info : UTF-8 Plain Text
  250. Duration : 1 h 42 min
  251. Bit rate : 58 b/s
  252. Count of elements : 644
  253. Stream size : 43.8 KiB (0%)
  254. Language : Thai
  255. Default : No
  256. Forced : No

  257. Subtitle #17
  258. ID : 20
  259. Format : UTF-8
  260. Codec ID : S_TEXT/UTF8
  261. Codec ID/Info : UTF-8 Plain Text
  262. Duration : 1 h 41 min
  263. Bit rate : 36 b/s
  264. Count of elements : 712
  265. Stream size : 27.1 KiB (0%)
  266. Language : Vietnamese
  267. Default : No
  268. Forced : No

  269. Subtitle #18
  270. ID : 21
  271. Format : PGS
  272. Muxing mode : zlib
  273. Codec ID : S_HDMV/PGS
  274. Codec ID/Info : Picture based subtitle format used on BDs/HD-DVDs
  275. Duration : 1 h 27 min
  276. Bit rate : 4 343 b/s
  277. Count of elements : 315
  278. Stream size : 2.71 MiB (0%)
  279. Title : Foreign Parts Only
  280. Language : English
  281. Default : No
  282. Forced : Yes

  283. Menu
  284. 00:00:00.000 : en:Chapter 01
  285. 00:02:27.856 : en:Chapter 02
  286. 00:05:08.141 : en:Chapter 03
  287. 00:09:50.214 : en:Chapter 04
  288. 00:16:08.592 : en:Chapter 05
  289. 00:19:52.024 : en:Chapter 06
  290. 00:25:12.135 : en:Chapter 07
  291. 00:32:19.062 : en:Chapter 08
  292. 00:35:57.655 : en:Chapter 09
  293. 00:45:02.408 : en:Chapter 10
  294. 00:50:30.861 : en:Chapter 11
  295. 00:58:39.724 : en:Chapter 12
  296. 01:04:35.121 : en:Chapter 13
  297. 01:13:12.221 : en:Chapter 14
  298. 01:21:39.436 : en:Chapter 15
  299. 01:30:05.733 : en:Chapter 16
  300. 01:38:37.077 : en:Chapter 17
  301. 01:41:46.100 : en:Chapter 18
  302. 01:43:19.401 : en:Chapter 19
  303. 01:50:42.636 : en:Chapter 20
复制代码

标杀令(港) / 追杀比尔(台) / 杀死比尔:第一卷 / 谋杀比尔杀死比尔4k Kill Bill Vol.1 2003 + Featurettes 2160p Bluray x265 HEVC AI 10bit AAC 5.1 -4k电影下载

谋杀比尔杀死比尔4k Kill Bill Vol.1 2003 + Featurettes 2160p Bluray x265 HEVC AI 10bit AAC 5.1 【5.2 GB】
谋杀比尔杀死比尔4k.txt
(112 Bytes)
回复

使用道具 举报

发烧友评论17

倒序浏览
wyq90 发表于 2020-11-4 10:51:44 | 显示全部楼层
sugusywh 发表于 2020-11-1 21:37
才5G。。。DVD的吗。。

真是脑残玩意 现在1080P 1G多就解决 5G说DVD 尼玛脑子里是屎吗?懂什么叫DVD吗
回复 支持 0 反对 1

使用道具 举报

heromm 发表于 2020-11-12 11:48:58 | 显示全部楼层
5.2G 这是web 4k么
回复 支持 反对

使用道具 举报

笨笨虎ben 发表于 2020-11-10 17:26:00 | 显示全部楼层
感谢楼主的分享
回复 支持 反对

使用道具 举报

风舞清扬 发表于 2020-11-9 21:53:27 | 显示全部楼层
谢谢分享!论坛有你更精彩!
回复 支持 反对

使用道具 举报

highlanders123 发表于 2020-11-6 17:24:45 | 显示全部楼层
thanks for sharing
回复 支持 反对

使用道具 举报

liyan042113982 发表于 2020-11-5 09:31:10 | 显示全部楼层
有免费资源看就不错了 还在那里叨叨
回复 支持 反对

使用道具 举报

yangly 发表于 2020-11-4 16:10:30 | 显示全部楼层
谢谢楼主分享
回复 支持 反对

使用道具 举报

glhasky 发表于 2020-11-3 17:14:37 | 显示全部楼层
这个容量也太小了点吧
回复 支持 反对

使用道具 举报

yelawyer 发表于 2020-11-2 19:24:35 | 显示全部楼层
谢谢分享好人一生平安
回复 支持 反对

使用道具 举报

t_zhe021 发表于 2020-11-2 14:08:04 | 显示全部楼层
这个容量也太小了点吧
回复 支持 反对

使用道具 举报

sugusywh 发表于 2020-11-1 21:37:04 | 显示全部楼层
才5G。。。DVD的吗。。
回复 支持 反对

使用道具 举报

高兵 发表于 2020-11-1 11:21:06 | 显示全部楼层
虽然小也可以凑合看,谢谢
回复 支持 反对

使用道具 举报

杂皮儿宝贝 发表于 2020-11-1 09:57:25 | 显示全部楼层
感谢风兄,请问有没有第二部?
回复 支持 反对

使用道具 举报

qhy888999 发表于 2020-10-30 20:37:01 | 显示全部楼层
这个容量也太小了点吧
回复 支持 反对

使用道具 举报

您需要登录后才可以回帖 登录 | 立即注册

本版积分规则


0关注

30粉丝

81帖子

热门图文主题
热门主题
社区广告

在线客服

在线客服

服务时间 9:00—18:00

返回顶部

关注微信公众号第一时间推送精彩

官方微信

手机访问

Hao4K影音

专注4k家庭影音,提供家庭影音社区,家庭影音器材库,影音问答平台,影音商城,服务千万家庭影音用户。

本站内容部分由用户自主分享和转载自互联网,转载目的在于传递更多信息,并不代表本网赞同其观点和对其真实性负责。

如有侵权、违反国家法律政策行为,请联系我们,我们会第一时间及时清除和处理!

举报反馈邮箱:admin@hao4k.cn

Copyright  2019-2020  Hao4K影音粤公网安备 44030302001429号    ( 粤ICP备18155646号-1 )|网站地图