专注4K家庭影音, 服务千万家庭影音发烧友!

[美剧] 曼达洛人 第二季4k The.Mandalorian.S02E01.HDR.2160p.WEB.h265-4k美剧下载

 
大红色 发表于 2020-11-2 11:44:31 | 显示全部楼层
电视剧频道
电视剧封面:
电视剧名: 曼达洛人 第二季4k
年  代: 2020  
国  家: 美国
类  别: 动作 科幻 冒险 
语  言: 英语
字  幕: 英文原版
上映日期: 2020-10-30
文件格式: mkv    
视频效果: 4K(3840x2160)    
资源大小: 8.27 GB
片  长: 30 分钟
导  演: 乔恩·费儒 / 塔伊加·维迪提 / 布莱丝·达拉斯·霍华德 / 戴夫·菲洛尼 / 瑞克·法穆易瓦 / 卡尔·韦瑟斯 / 佩顿·里德 / 罗伯特·罗德里格兹
剧情简介: 星战宇宙的首部真人剧,故事时间线设置在帝国陷落之后,一位孤胆枪手奋战于远离新共和国治理的银河偏远行星带。第二季中,我们的主角曼达洛人将继续与“尤达宝宝”一同在银河系内冒险,等待他们的将是更加危险的敌人。
星球大战:曼达洛人 / Star Wars: The Mandalorian/曼达洛人 第二季4k The.Mandalorian.S02E01.HDR.2160p.WEB.h265-4k美剧信息
  1. Video
  2. ID : 1
  3. Format : HEVC
  4. Format/Info : High Efficiency Video Coding
  5. Format profile : Main 10@L5@Main
  6. Codec ID : V_MPEGH/ISO/HEVC
  7. Duration : 51 min 51 s
  8. Bit rate : 22.1 Mb/s
  9. Width : 3 840 pixels
  10. Height : 2 160 pixels
  11. Display aspect ratio : 16:9
  12. Frame rate mode : Constant
  13. Frame rate : 23.976 (24000/1001) FPS
  14. Color space : YUV
  15. Chroma subsampling : 4:2:0
  16. Bit depth : 10 bits
  17. Bits/(Pixel*Frame) : 0.111
  18. Stream size : 7.99 GiB (97%)
  19. Writing library : x265 3.4:[Linux][GCC 7.5.0][64 bit] 10bit
  20. Encoding settings : cpuid=1111039 / frame-threads=1 / wpp / no-pmode / no-pme / no-psnr / no-ssim / log-level=2 / input-csp=1 / input-res=3840x2160 / interlace=0 / total-frames=0 / level-idc=50 / high-tier=0 / uhd-bd=0 / ref=3 / no-allow-non-conformance / repeat-headers / annexb / no-aud / no-hrd / info / hash=0 / no-temporal-layers / no-open-gop / min-keyint=48 / keyint=48 / gop-lookahead=0 / bframes=2 / b-adapt=0 / b-pyramid / bframe-bias=0 / rc-lookahead=48 / lookahead-slices=8 / scenecut=0 / hist-scenecut=0 / radl=0 / no-splice / no-intra-refresh / ctu=32 / min-cu-size=8 / no-rect / no-amp / max-tu-size=16 / tu-inter-depth=2 / tu-intra-depth=2 / limit-tu=0 / rdoq-level=1 / dynamic-rd=0.00 / no-ssim-rd / signhide / no-tskip / nr-intra=0 / nr-inter=0 / no-constrained-intra / no-strong-intra-smoothing / max-merge=3 / limit-refs=1 / no-limit-modes / me=1 / subme=2 / merange=44 / temporal-mvp / no-frame-dup / no-hme / weightp / no-weightb / no-analyze-src-pics / deblock=0:0 / no-sao / no-sao-non-deblock / rd=4 / selective-sao=0 / early-skip / rskip / no-fast-intra / no-tskip-fast / no-cu-lossless / b-intra / no-splitrd-skip / rdpenalty=1 / psy-rd=1.60 / psy-rdoq=5.00 / no-rd-refine / no-lossless / cbqpoffs=0 / crqpoffs=0 / rc=abr / bitrate=23000 / qcomp=0.75 / qpstep=4 / stats-write=0 / stats-read=0 / vbv-maxrate=25000 / vbv-bufsize=25000 / vbv-init=0.9 / ipratio=1.40 / pbratio=1.30 / aq-mode=3 / aq-strength=1.00 / no-cutree / zone-count=0 / no-strict-cbr / qg-size=32 / no-rc-grain / qpmax=69 / qpmin=0 / no-const-vbv / sar=1 / overscan=0 / videoformat=5 / range=0 / colorprim=9 / transfer=16 / colormatrix=9 / chromaloc=0 / display-window=0 / cll=0,0 / min-luma=0 / max-luma=1023 / log2-max-poc-lsb=8 / vui-timing-info / vui-hrd-info / slices=1 / no-opt-qp-pps / no-opt-ref-list-length-pps / no-multi-pass-opt-rps / scenecut-bias=0.00 / hist-threshold=0.01 / no-opt-cu-delta-qp / no-aq-motion / no-hdr10 / hdr10-opt / no-dhdr10-opt / no-idr-recovery-sei / analysis-reuse-level=0 / analysis-save-reuse-level=0 / analysis-load-reuse-level=0 / scale-factor=0 / refine-intra=0 / refine-inter=0 / refine-mv=1 / refine-ctu-distortion=0 / no-limit-sao / ctu-info=0 / no-lowpass-dct / refine-analysis-type=0 / copy-pic=1 / max-ausize-factor=1.0 / no-dynamic-refine / no-single-sei / no-hevc-aq / no-svt / no-field / qp-adaptation-range=1.00 / no-scenecut-aware-qpconformance-window-offsets / right=0 / bottom=0
  21. Language : English
  22. Default : Yes
  23. Forced : No
  24. Color range : Limited
  25. Color primaries : BT.2020
  26. Transfer characteristics : PQ
  27. Matrix coefficients : BT.2020 non-constant

  28. Audio
  29. ID : 2
  30. Format : E-AC-3 JOC
  31. Format/Info : Enhanced AC-3 with Joint Object Coding
  32. Commercial name : Dolby Digital Plus with Dolby Atmos
  33. Codec ID : A_EAC3
  34. Duration : 51 min 51 s
  35. Bit rate mode : Constant
  36. Bit rate : 768 kb/s
  37. Channel(s) : 6 channels
  38. Channel layout : L R C LFE Ls Rs
  39. Sampling rate : 48.0 kHz
  40. Frame rate : 31.250 FPS (1536 SPF)
  41. Compression mode : Lossy
  42. Stream size : 285 MiB (3%)
  43. Language : English
  44. Service kind : Complete Main
  45. Default : Yes
  46. Forced : No
  47. Complexity index : 16
  48. Number of dynamic objects : 15
  49. Bed channel count : 1 channel
  50. Bed channel configuration : LFE

  51. Text #1
  52. ID : 3
  53. Format : UTF-8
  54. Codec ID : S_TEXT/UTF8
  55. Codec ID/Info : UTF-8 Plain Text
  56. Duration : 48 min 25 s
  57. Bit rate : 44 b/s
  58. Count of elements : 481
  59. Stream size : 15.7 KiB (0%)
  60. Title : English (SDH)
  61. Language : English
  62. Default : No
  63. Forced : No

  64. Text #2
  65. ID : 4
  66. Format : UTF-8
  67. Codec ID : S_TEXT/UTF8
  68. Codec ID/Info : UTF-8 Plain Text
  69. Duration : 51 min 37 s
  70. Bit rate : 29 b/s
  71. Count of elements : 255
  72. Stream size : 11.1 KiB (0%)
  73. Title : Dansk
  74. Language : Danish
  75. Default : No
  76. Forced : No

  77. Text #3
  78. ID : 5
  79. Format : UTF-8
  80. Codec ID : S_TEXT/UTF8
  81. Codec ID/Info : UTF-8 Plain Text
  82. Duration : 51 min 37 s
  83. Bit rate : 28 b/s
  84. Count of elements : 339
  85. Stream size : 10.7 KiB (0%)
  86. Title : Deutsch
  87. Language : German
  88. Default : No
  89. Forced : No

  90. Text #4
  91. ID : 6
  92. Format : UTF-8
  93. Codec ID : S_TEXT/UTF8
  94. Codec ID/Info : UTF-8 Plain Text
  95. Duration : 51 min 37 s
  96. Bit rate : 26 b/s
  97. Count of elements : 342
  98. Stream size : 10.1 KiB (0%)
  99. Title : Español
  100. Language : Spanish
  101. Default : No
  102. Forced : No

  103. Text #5
  104. ID : 7
  105. Format : UTF-8
  106. Codec ID : S_TEXT/UTF8
  107. Codec ID/Info : UTF-8 Plain Text
  108. Duration : 51 min 37 s
  109. Bit rate : 27 b/s
  110. Count of elements : 343
  111. Stream size : 10.5 KiB (0%)
  112. Title : Español (Latinoamericano)
  113. Language : Spanish
  114. Default : No
  115. Forced : No

  116. Text #6
  117. ID : 8
  118. Format : UTF-8
  119. Codec ID : S_TEXT/UTF8
  120. Codec ID/Info : UTF-8 Plain Text
  121. Duration : 51 min 37 s
  122. Bit rate : 29 b/s
  123. Count of elements : 344
  124. Stream size : 11.1 KiB (0%)
  125. Title : Suomi
  126. Language : Finnish
  127. Default : No
  128. Forced : No

  129. Text #7
  130. ID : 9
  131. Format : UTF-8
  132. Codec ID : S_TEXT/UTF8
  133. Codec ID/Info : UTF-8 Plain Text
  134. Duration : 51 min 37 s
  135. Bit rate : 26 b/s
  136. Count of elements : 335
  137. Stream size : 10.2 KiB (0%)
  138. Title : Français
  139. Language : French
  140. Default : No
  141. Forced : No

  142. Text #8
  143. ID : 10
  144. Format : UTF-8
  145. Codec ID : S_TEXT/UTF8
  146. Codec ID/Info : UTF-8 Plain Text
  147. Duration : 51 min 37 s
  148. Bit rate : 30 b/s
  149. Count of elements : 343
  150. Stream size : 11.4 KiB (0%)
  151. Title : Indonesian
  152. Language : Indonesian
  153. Default : No
  154. Forced : No

  155. Text #9
  156. ID : 11
  157. Format : UTF-8
  158. Codec ID : S_TEXT/UTF8
  159. Codec ID/Info : UTF-8 Plain Text
  160. Duration : 51 min 37 s
  161. Bit rate : 29 b/s
  162. Count of elements : 343
  163. Stream size : 11.0 KiB (0%)
  164. Title : Italiano
  165. Language : Italian
  166. Default : No
  167. Forced : No

  168. Text #10
  169. ID : 12
  170. Format : UTF-8
  171. Codec ID : S_TEXT/UTF8
  172. Codec ID/Info : UTF-8 Plain Text
  173. Duration : 51 min 37 s
  174. Bit rate : 30 b/s
  175. Count of elements : 299
  176. Stream size : 11.4 KiB (0%)
  177. Title : Nederlands
  178. Language : Dutch
  179. Default : No
  180. Forced : No

  181. Text #11
  182. ID : 13
  183. Format : UTF-8
  184. Codec ID : S_TEXT/UTF8
  185. Codec ID/Info : UTF-8 Plain Text
  186. Duration : 51 min 37 s
  187. Bit rate : 26 b/s
  188. Count of elements : 343
  189. Stream size : 9.94 KiB (0%)
  190. Title : Norsk
  191. Language : Norwegian
  192. Default : No
  193. Forced : No

  194. Text #12
  195. ID : 14
  196. Format : UTF-8
  197. Codec ID : S_TEXT/UTF8
  198. Codec ID/Info : UTF-8 Plain Text
  199. Duration : 51 min 37 s
  200. Bit rate : 27 b/s
  201. Count of elements : 342
  202. Stream size : 10.4 KiB (0%)
  203. Title : Polski
  204. Language : Polish
  205. Default : No
  206. Forced : No

  207. Text #13
  208. ID : 15
  209. Format : UTF-8
  210. Codec ID : S_TEXT/UTF8
  211. Codec ID/Info : UTF-8 Plain Text
  212. Duration : 51 min 37 s
  213. Bit rate : 29 b/s
  214. Count of elements : 341
  215. Stream size : 11.2 KiB (0%)
  216. Title : PortuguÃas
  217. Language : Portuguese
  218. Default : No
  219. Forced : No

  220. Text #14
  221. ID : 16
  222. Format : UTF-8
  223. Codec ID : S_TEXT/UTF8
  224. Codec ID/Info : UTF-8 Plain Text
  225. Duration : 51 min 37 s
  226. Bit rate : 29 b/s
  227. Count of elements : 343
  228. Stream size : 11.3 KiB (0%)
  229. Title : PortuguÃas (Brasil)
  230. Language : Portuguese
  231. Default : No
  232. Forced : No

  233. Text #15
  234. ID : 17
  235. Format : UTF-8
  236. Codec ID : S_TEXT/UTF8
  237. Codec ID/Info : UTF-8 Plain Text
  238. Duration : 51 min 37 s
  239. Bit rate : 30 b/s
  240. Count of elements : 298
  241. Stream size : 11.7 KiB (0%)
  242. Title : Svenska
  243. Language : Swedish
  244. Default : No
  245. Forced : No
复制代码

星球大战:曼达洛人 / Star Wars: The Mandalorian/曼达洛人 第二季4k The.Mandalorian.S02E01.HDR.2160p.WEB.h265-4k美剧下载

曼达洛人 第二季4k The.Mandalorian.S02E01.HDR.2160p.WEB.h265【8.27 GB】
[Hao4k]曼达洛人 第二季4k The.Mandalorian.S02E01.HDR.2160p.WEB.h265-KOGi[rartv].torrent
(42.07 KB)
回复

使用道具 举报

发烧友评论75

倒序浏览
jalon88 发表于 2020-11-16 18:09:11 | 显示全部楼层
都出到第三集啦,更新略慢
回复 支持 6 反对 0

使用道具 举报

Sunlight_hit 发表于 6 天前 | 显示全部楼层
magnet:?xt=urn:btih:c4982d79f56ee78cdfb6b78532939e08aa74e4ad&dn=The.Mandalorian.S02E03.iNTERNAL.HDR.2160p.WEB.h265-KOGi%5Brartv%5D&tr=http%3A%2F%2Ftracker.trackerfix.com%3A80%2Fannounce&tr=udp%3A%2F%2F9.hao4k.me%3A2750%2Fannounce&tr=udp%3A%2F%2F9.hao4k.to%3A2970%2Fannounce  第三集兄弟们。
回复 支持 4 反对 0

使用道具 举报

13512522211 发表于 6 天前 | 显示全部楼层
第三集去哪里了找不到了,怎么直接就第四集了!
回复 支持 1 反对 0

使用道具 举报

cyxcw1 发表于 昨天 23:31 | 显示全部楼层
给力给力,期待第五集
回复 支持 反对

使用道具 举报

听雨0109 发表于 3 天前 | 显示全部楼层
终于出第三集了,谢谢楼主
回复 支持 反对

使用道具 举报

TOT35 发表于 4 天前 | 显示全部楼层
MsWan 发表于 2020-11-23 22:38
星战新三部曲画质好一点,不过剧情尤其是价值观的表达确实扑街了

后三部剧情还不如这一部
回复 支持 反对

使用道具 举报

TOT35 发表于 4 天前 | 显示全部楼层
cjh623624 发表于 2020-11-21 15:59
第三集缺失啊。。。。。。

第三集不见了
回复 支持 反对

使用道具 举报

MsWan 发表于 5 天前 | 显示全部楼层
hk1560777 发表于 2020-11-22 15:18
部部精彩,比星战新三部曲强多了

星战新三部曲画质好一点,不过剧情尤其是价值观的表达确实扑街了
回复 支持 反对

使用道具 举报

aries9999 发表于 6 天前 | 显示全部楼层
求问,字幕哪里有?
回复 支持 反对

使用道具 举报

XIUHUONE 发表于 6 天前 | 显示全部楼层
加油楼主,哼很赞!
回复 支持 反对

使用道具 举报

hk1560777 发表于 6 天前 | 显示全部楼层
部部精彩,比星战新三部曲强多了
回复 支持 反对

使用道具 举报

aishun 发表于 6 天前 | 显示全部楼层
第三集怎么没有啊
回复 支持 反对

使用道具 举报

kobewj 发表于 7 天前 Hao4K手机版 | 显示全部楼层
更新啦,感谢楼主,辛苦了
回复 支持 反对

使用道具 举报

cjh623624 发表于 7 天前 | 显示全部楼层
第三集缺失啊。。。。。。
回复 支持 反对

使用道具 举报

Kmhitman 发表于 7 天前 | 显示全部楼层
多谢楼主分享,第三集好像迷路了
回复 支持 反对

使用道具 举报

PHLILPS 发表于 7 天前 | 显示全部楼层
值得收藏,就是更新速度慢了点
回复 支持 反对

使用道具 举报

3331882364 发表于 7 天前 | 显示全部楼层
谢谢谢谢  天天都来看一下  终于更新了!!!
回复 支持 反对

使用道具 举报

hanlili 发表于 7 天前 Hao4K手机版 | 显示全部楼层
第三集没有啊
回复 支持 反对

使用道具 举报

您需要登录后才可以回帖 登录 | 立即注册

本版积分规则

在线客服

在线客服

服务时间 9:00—18:00

返回顶部

关注微信公众号第一时间推送精彩

官方微信

手机访问

Hao4K影音

专注4k家庭影音,提供家庭影音社区,家庭影音器材库,影音问答平台,影音商城,服务千万家庭影音用户。

本站内容部分由用户自主分享和转载自互联网,转载目的在于传递更多信息,并不代表本网赞同其观点和对其真实性负责。

如有侵权、违反国家法律政策行为,请联系我们,我们会第一时间及时清除和处理!

举报反馈邮箱:admin@hao4k.cn

Copyright  2019-2020  Hao4K影音粤公网安备 44030302001429号    ( 粤ICP备18155646号-1 )|网站地图