专注4K家庭影音, 服务千万家庭影音发烧友!

[美剧] 太空先锋4K The.Right.Stuff.S01E01.Sierra.Hotel.2160p.WEBRip.DDP5.1.Atmos.x265...

大红色 发表于 2020-11-2 16:26:24 | 显示全部楼层
电视剧频道
电视剧封面:
电视剧名: 太空先锋4K
年  代: 2020  
国  家: 美国
类  别: 剧情 
语  言: 英语
字  幕: 英文原版
上映日期: 2020-10-09
文件格式: mkv    
视频效果: 4K(3840x2160)    
资源大小: 51.04 GB
片  长: 40 分钟
导  演: 克里斯·朗 / 路易丝·弗里德贝格 / 罗伯·拜利 / 约翰·大卫·科尔斯 / 尼克·科普斯 / 安德鲁·伯恩斯坦
剧情简介: 来自《诉讼双雄》(Suits)的Patrick J. Adams将主演国家地理频道的新剧《太空先锋》(The Right Stuff),饰演第一个进入地球轨道的美国宇航员约翰·格伦。1983年曾出过同名电影版,描绘了美国太空计划的诞生过程以及第一批航天员诞生的历史故事。
  该剧是由小李子的制片公司亚壁古道公司(Appian Way)出品的,李奥纳多·迪卡普里奥本人也将担任总制片人之一,预计2020年播出。
关键一步 / 真材实料/太空先锋4K The.Right.Stuff.S01E01.Sierra.Hotel.2160p.WEBRip.DDP5.1.Atmos.x265-4K美剧信息
  1. Video
  2. ID : 1
  3. Format : HEVC
  4. Format/Info : High Efficiency Video Coding
  5. Format profile : Main@L5@High
  6. Codec ID : V_MPEGH/ISO/HEVC
  7. Duration : 44 min 14 s
  8. Bit rate : 18.9 Mb/s
  9. Width : 3 840 pixels
  10. Height : 2 160 pixels
  11. Display aspect ratio : 16:9
  12. Frame rate mode : Constant
  13. Frame rate : 23.976 (24000/1001) FPS
  14. Color space : YUV
  15. Chroma subsampling : 4:2:0
  16. Bit depth : 8 bits
  17. Bits/(Pixel*Frame) : 0.095
  18. Stream size : 5.85 GiB (96%)
  19. Writing library : x265 3.4:[Linux][GCC 7.5.0][64 bit] 8bit+10bit+12bit
  20. Encoding settings : cpuid=1111039 / frame-threads=1 / wpp / no-pmode / no-pme / no-psnr / no-ssim / log-level=2 / input-csp=1 / input-res=3840x2160 / interlace=0 / total-frames=0 / level-idc=50 / high-tier=1 / uhd-bd=0 / ref=2 / no-allow-non-conformance / repeat-headers / annexb / no-aud / no-hrd / info / hash=0 / no-temporal-layers / no-open-gop / min-keyint=48 / keyint=48 / gop-lookahead=0 / bframes=4 / b-adapt=0 / b-pyramid / bframe-bias=0 / rc-lookahead=48 / lookahead-slices=8 / scenecut=0 / hist-scenecut=0 / radl=0 / no-splice / no-intra-refresh / ctu=32 / min-cu-size=8 / no-rect / no-amp / max-tu-size=16 / tu-inter-depth=2 / tu-intra-depth=2 / limit-tu=0 / rdoq-level=1 / dynamic-rd=0.00 / no-ssim-rd / signhide / no-tskip / nr-intra=0 / nr-inter=0 / no-constrained-intra / no-strong-intra-smoothing / max-merge=3 / limit-refs=1 / no-limit-modes / me=1 / subme=2 / merange=44 / temporal-mvp / no-frame-dup / no-hme / weightp / no-weightb / no-analyze-src-pics / deblock=0:0 / no-sao / no-sao-non-deblock / rd=4 / selective-sao=0 / early-skip / rskip / no-fast-intra / no-tskip-fast / no-cu-lossless / b-intra / no-splitrd-skip / rdpenalty=1 / psy-rd=1.60 / psy-rdoq=5.00 / no-rd-refine / no-lossless / cbqpoffs=0 / crqpoffs=0 / rc=abr / bitrate=20000 / qcomp=0.75 / qpstep=4 / stats-write=0 / stats-read=0 / vbv-maxrate=24000 / vbv-bufsize=40000 / vbv-init=0.9 / ipratio=1.40 / pbratio=1.30 / aq-mode=3 / aq-strength=1.00 / no-cutree / zone-count=0 / no-strict-cbr / qg-size=32 / no-rc-grain / qpmax=69 / qpmin=0 / no-const-vbv / sar=1 / overscan=0 / videoformat=5 / range=0 / colorprim=1 / transfer=1 / colormatrix=1 / chromaloc=0 / display-window=0 / cll=0,0 / min-luma=0 / max-luma=255 / log2-max-poc-lsb=8 / vui-timing-info / vui-hrd-info / slices=1 / no-opt-qp-pps / no-opt-ref-list-length-pps / no-multi-pass-opt-rps / scenecut-bias=0.00 / hist-threshold=0.01 / no-opt-cu-delta-qp / no-aq-motion / no-hdr10 / no-hdr10-opt / no-dhdr10-opt / no-idr-recovery-sei / analysis-reuse-level=0 / analysis-save-reuse-level=0 / analysis-load-reuse-level=0 / scale-factor=0 / refine-intra=0 / refine-inter=0 / refine-mv=1 / refine-ctu-distortion=0 / no-limit-sao / ctu-info=0 / no-lowpass-dct / refine-analysis-type=0 / copy-pic=1 / max-ausize-factor=1.0 / no-dynamic-refine / no-single-sei / no-hevc-aq / no-svt / no-field / qp-adaptation-range=1.00 / no-scenecut-aware-qpconformance-window-offsets / right=0 / bottom=0
  21. Default : Yes
  22. Forced : No
  23. Color range : Limited
  24. Color primaries : BT.709
  25. Transfer characteristics : BT.709
  26. Matrix coefficients : BT.709

  27. Audio
  28. ID : 2
  29. Format : E-AC-3 JOC
  30. Format/Info : Enhanced AC-3 with Joint Object Coding
  31. Commercial name : Dolby Digital Plus with Dolby Atmos
  32. Codec ID : A_EAC3
  33. Duration : 44 min 14 s
  34. Bit rate mode : Constant
  35. Bit rate : 768 kb/s
  36. Channel(s) : 6 channels
  37. Channel layout : L R C LFE Ls Rs
  38. Sampling rate : 48.0 kHz
  39. Frame rate : 31.250 FPS (1536 SPF)
  40. Compression mode : Lossy
  41. Stream size : 243 MiB (4%)
  42. Title : English
  43. Language : English
  44. Service kind : Complete Main
  45. Default : Yes
  46. Forced : No
  47. Complexity index : 16
  48. Number of dynamic objects : 15
  49. Bed channel count : 1 channel
  50. Bed channel configuration : LFE

  51. Text #1
  52. ID : 3
  53. Format : UTF-8
  54. Codec ID : S_TEXT/UTF8
  55. Codec ID/Info : UTF-8 Plain Text
  56. Duration : 41 min 30 s
  57. Bit rate : 69 b/s
  58. Count of elements : 588
  59. Stream size : 21.2 KiB (0%)
  60. Title : English
  61. Language : English
  62. Default : No
  63. Forced : No

  64. Text #2
  65. ID : 4
  66. Format : UTF-8
  67. Codec ID : S_TEXT/UTF8
  68. Codec ID/Info : UTF-8 Plain Text
  69. Duration : 41 min 48 s
  70. Bit rate : 75 b/s
  71. Count of elements : 642
  72. Stream size : 23.0 KiB (0%)
  73. Title : English [SDH]
  74. Language : English
  75. Default : No
  76. Forced : No

  77. Text #3
  78. ID : 5
  79. Format : UTF-8
  80. Codec ID : S_TEXT/UTF8
  81. Codec ID/Info : UTF-8 Plain Text
  82. Duration : 43 min 52 s
  83. Bit rate : 65 b/s
  84. Count of elements : 631
  85. Stream size : 21.0 KiB (0%)
  86. Title : Brazilian Portuguese
  87. Language : Portuguese
  88. Default : No
  89. Forced : No

  90. Text #4
  91. ID : 6
  92. Format : UTF-8
  93. Codec ID : S_TEXT/UTF8
  94. Codec ID/Info : UTF-8 Plain Text
  95. Duration : 43 min 52 s
  96. Bit rate : 59 b/s
  97. Count of elements : 587
  98. Stream size : 19.1 KiB (0%)
  99. Title : Danish
  100. Language : Danish
  101. Default : No
  102. Forced : No

  103. Text #5
  104. ID : 7
  105. Format : UTF-8
  106. Codec ID : S_TEXT/UTF8
  107. Codec ID/Info : UTF-8 Plain Text
  108. Duration : 43 min 52 s
  109. Bit rate : 67 b/s
  110. Count of elements : 616
  111. Stream size : 21.8 KiB (0%)
  112. Title : German
  113. Language : German
  114. Default : No
  115. Forced : No

  116. Text #6
  117. ID : 8
  118. Format : UTF-8
  119. Codec ID : S_TEXT/UTF8
  120. Codec ID/Info : UTF-8 Plain Text
  121. Duration : 43 min 52 s
  122. Bit rate : 62 b/s
  123. Count of elements : 633
  124. Stream size : 20.0 KiB (0%)
  125. Title : European Spanish
  126. Language : Spanish
  127. Default : No
  128. Forced : No

  129. Text #7
  130. ID : 9
  131. Format : UTF-8
  132. Codec ID : S_TEXT/UTF8
  133. Codec ID/Info : UTF-8 Plain Text
  134. Duration : 43 min 52 s
  135. Bit rate : 63 b/s
  136. Count of elements : 605
  137. Stream size : 20.4 KiB (0%)
  138. Title : Finnish
  139. Language : Finnish
  140. Default : No
  141. Forced : No

  142. Text #8
  143. ID : 10
  144. Format : UTF-8
  145. Codec ID : S_TEXT/UTF8
  146. Codec ID/Info : UTF-8 Plain Text
  147. Duration : 43 min 52 s
  148. Bit rate : 61 b/s
  149. Count of elements : 632
  150. Stream size : 19.9 KiB (0%)
  151. Title : French
  152. Language : French
  153. Default : No
  154. Forced : No

  155. Text #9
  156. ID : 11
  157. Format : UTF-8
  158. Codec ID : S_TEXT/UTF8
  159. Codec ID/Info : UTF-8 Plain Text
  160. Duration : 43 min 52 s
  161. Bit rate : 61 b/s
  162. Count of elements : 627
  163. Stream size : 19.8 KiB (0%)
  164. Title : Italian
  165. Language : Italian
  166. Default : No
  167. Forced : No

  168. Text #10
  169. ID : 12
  170. Format : UTF-8
  171. Codec ID : S_TEXT/UTF8
  172. Codec ID/Info : UTF-8 Plain Text
  173. Duration : 43 min 52 s
  174. Bit rate : 55 b/s
  175. Count of elements : 570
  176. Stream size : 18.0 KiB (0%)
  177. Title : Dutch
  178. Language : Dutch
  179. Default : No
  180. Forced : No

  181. Text #11
  182. ID : 13
  183. Format : UTF-8
  184. Codec ID : S_TEXT/UTF8
  185. Codec ID/Info : UTF-8 Plain Text
  186. Duration : 43 min 52 s
  187. Bit rate : 56 b/s
  188. Count of elements : 629
  189. Stream size : 18.1 KiB (0%)
  190. Title : Norwegian
  191. Language : Norwegian
  192. Default : No
  193. Forced : No

  194. Text #12
  195. ID : 14
  196. Format : UTF-8
  197. Codec ID : S_TEXT/UTF8
  198. Codec ID/Info : UTF-8 Plain Text
  199. Duration : 43 min 52 s
  200. Bit rate : 54 b/s
  201. Count of elements : 530
  202. Stream size : 17.7 KiB (0%)
  203. Title : Polish
  204. Language : Polish
  205. Default : No
  206. Forced : No

  207. Text #13
  208. ID : 15
  209. Format : UTF-8
  210. Codec ID : S_TEXT/UTF8
  211. Codec ID/Info : UTF-8 Plain Text
  212. Duration : 43 min 52 s
  213. Bit rate : 60 b/s
  214. Count of elements : 634
  215. Stream size : 19.6 KiB (0%)
  216. Title : Portuguese
  217. Language : Portuguese
  218. Default : No
  219. Forced : No

  220. Text #14
  221. ID : 16
  222. Format : UTF-8
  223. Codec ID : S_TEXT/UTF8
  224. Codec ID/Info : UTF-8 Plain Text
  225. Duration : 43 min 52 s
  226. Bit rate : 65 b/s
  227. Count of elements : 637
  228. Stream size : 21.1 KiB (0%)
  229. Title : Spanish
  230. Language : Spanish
  231. Default : No
  232. Forced : No

  233. Text #15
  234. ID : 17
  235. Format : UTF-8
  236. Codec ID : S_TEXT/UTF8
  237. Codec ID/Info : UTF-8 Plain Text
  238. Duration : 43 min 52 s
  239. Bit rate : 64 b/s
  240. Count of elements : 630
  241. Stream size : 20.7 KiB (0%)
  242. Title : Swedish
  243. Language : Swedish
  244. Default : No
  245. Forced : No
复制代码

关键一步 / 真材实料/太空先锋4K The.Right.Stuff.S01E01.Sierra.Hotel.2160p.WEBRip.DDP5.1.Atmos.x265-4K美剧下载

太空先锋4K The.Right.Stuff.S01.2160p.WEBRip.DDP5.1.Atmos.x265【51.04 GB】
[Hao4k]太空先锋4K The.Right.Stuff.S01.2160p.WEBRip.DDP5.1.Atmos.x265-KOGi[rartv].torrent
(128.66 KB)
回复

使用道具 举报

发烧友评论3

倒序浏览
阿伟影视 发表于 5 天前 | 显示全部楼层
感谢分享  
回复 支持 反对

使用道具 举报

ytsfdbh 发表于 2020-11-7 11:42:40 | 显示全部楼层
感谢分享,优质资源
回复 支持 反对

使用道具 举报

您需要登录后才可以回帖 登录 | 立即注册

本版积分规则

在线客服

在线客服

服务时间 9:00—18:00

返回顶部

关注微信公众号第一时间推送精彩

官方微信

手机访问

Hao4K影音

专注4k家庭影音,提供家庭影音社区,家庭影音器材库,影音问答平台,影音商城,服务千万家庭影音用户。

本站内容部分由用户自主分享和转载自互联网,转载目的在于传递更多信息,并不代表本网赞同其观点和对其真实性负责。

如有侵权、违反国家法律政策行为,请联系我们,我们会第一时间及时清除和处理!

举报反馈邮箱:admin@hao4k.cn

Copyright  2019-2020  Hao4K影音粤公网安备 44030302001429号    ( 粤ICP备18155646号-1 )|网站地图