专注4K家庭影音, 服务千万家庭影音发烧友!

[待验证4K资源] 身体摄像机4k Body Cam 2020 2160p-4k电影下载

碧池 发表于 2020-11-3 16:12:14 | 显示全部楼层
电影频道
电影封面:
片  名: 身体摄像机4k
电影分类: 恐怖 惊悚 悬疑 
国  家: 美国 
年  代: 2020年
分 辨 率: 4K(3840x2160)
电影格式: MKV|REMUX 
画质标准: HDR10 
音质编码: Dolby Digital Audio 
电影声道: 5.1声道 
帧数/FPS: 23.976 FPS
电影语言: 英文原版 
资源大小: 13.2 GB
导  演: Malik Vitthal
豆瓣评分: 4.7 分
中文字幕: -
剧情简介: 讲述洛杉矶警察局的几名警官被一种恶毒的情绪所困扰,与两个白人警察杀害一名黑人青年有关。所有这些人都被一个身体摄像机拍到,而为了掩盖事实视频被销毁了。
致命摄影机 / 致命摄像头/身体摄像机4k Body Cam 2020)2160p WEB-DL HDR x265 5.1-4k电影信息
  1. Video Specs:
  2. Format : HEVC
  3. Format/Info : High Efficiency Video Coding
  4. Commercial name : HDR10
  5. Codec ID : V_MPEGH/ISO/HEVC
  6. Duration : 1 h 36 min
  7. Bit rate : 17.7 Mb/s
  8. Width : 3 840 pixels
  9. Height : 2 160 pixels
  10. Display aspect ratio : 16:9
  11. Frame rate mode : Constant
  12. Frame rate : 23.976 (24000/1001) FPS
  13. Original frame rate : 23.976 (23976/1000) FPS
  14. Color space : YUV
  15. Chroma subsampling : 4:2:0
  16. Bit depth : 10 bits
  17. Bits/(Pixel*Frame) : 0.089
  18. Stream size : 11.9 GiB (90%)
  19. Writing library : x265 3.0_RC+11-72188bd2f034:[Linux][GCC 4.9.2][64 bit] 10bit
  20. Encoding settings : cpuid=1111039 / frame-threads=3 / wpp / no-pmode / no-pme / no-psnr / no-ssim / log-level=2 / input-csp=1 / input-res=3840x2160 / interlace=0 / total-frames=0 / level-idc=51 / high-tier=1 / uhd-bd=0 / ref=4 / no-allow-non-conformance / repeat-headers / annexb / no-aud / no-hrd / info / hash=0 / no-temporal-layers / no-open-gop / min-keyint=24 / keyint=48 / gop-lookahead=0 / bframes=3 / b-adapt=0 / no-b-pyramid / bframe-bias=0 / rc-lookahead=15 / lookahead-slices=8 / scenecut=0 / radl=0 / no-splice / no-intra-refresh / ctu=64 / min-cu-size=8 / no-rect / no-amp / max-tu-size=32 / tu-inter-depth=1 / tu-intra-depth=1 / limit-tu=0 / rdoq-level=0 / dynamic-rd=0.00 / no-ssim-rd / signhide / no-tskip / nr-intra=0 / nr-inter=0 / no-constrained-intra / strong-intra-smoothing / max-merge=2 / limit-refs=3 / no-limit-modes / me=1 / subme=2 / merange=57 / temporal-mvp / weightp / no-weightb / no-analyze-src-pics / deblock=0:0 / sao / no-sao-non-deblock / rd=2 / no-early-skip / rskip / fast-intra / no-tskip-fast / no-cu-lossless / no-b-intra / no-splitrd-skip / rdpenalty=0 / psy-rd=2.00 / psy-rdoq=0.00 / no-rd-refine / no-lossless / cbqpoffs=0 / crqpoffs=0 / rc=cbr / bitrate=18000 / qcomp=0.60 / qpstep=4 / stats-write=0 / stats-read=0 / vbv-maxrate=18000 / vbv-bufsize=36000 / vbv-init=0.9 / ipratio=1.40 / pbratio=1.30 / aq-mode=2 / aq-strength=1.00 / cutree / zone-count=0 / no-strict-cbr / qg-size=32 / no-rc-grain / qpmax=69 / qpmin=0 / no-const-vbv / sar=1 / overscan=0 / videoformat=5 / range=0 / colorprim=9 / transfer=16 / colormatrix=9 / chromaloc=0 / display-window=0 / master-display=G(13250,34500)B(7500,3000)R(34000,16000)WP(15635,16450)L(10000000,10) / max-cll=682,205 / min-luma=0 / max-luma=1023 / log2-max-poc-lsb=8 / vui-timing-info / vui-hrd-info / slices=1 / no-opt-qp-pps / no-opt-ref-list-length-pps / no-multi-pass-opt-rps / scenecut-bias=0.05 / no-opt-cu-delta-qp / no-aq-motion / hdr / no-hdr-opt / no-dhdr10-opt / no-idr-recovery-sei / analysis-reuse-level=5 / scale-factor=0 / refine-intra=0 / refine-inter=0 / refine-mv=0 / refine-ctu-distortion=0 / no-limit-sao / ctu-info=0 / no-lowpass-dct / refine-analysis-type=0 / copy-pic=1 / max-ausize-factor=1.0 / no-dynamic-refine / no-single-sei / no-hevc-aq / qp-adaptation-range=1.00
  21. Default : Yes
  22. Forced : No
  23. Color range : Limited
  24. Color primaries : BT.2020
  25. Transfer characteristics : PQ
  26. Matrix coefficients : BT.2020 non-constant
  27. Mastering display color primaries : Display P3
  28. Mastering display luminance : min: 0.0010 cd/m2, max: 1000 cd/m2
  29. Maximum Content Light Level : 682 cd/m2
  30. Maximum Frame-Average Light Level : 205 cd/m2

  31. Audio Specs: Russian (iTunes)
  32. Format : AC-3
  33. Format/Info : Audio Coding 3
  34. Commercial name : Dolby Digital
  35. Codec ID : A_AC3
  36. Duration : 1 h 36 min
  37. Bit rate mode : Constant
  38. Bit rate : 384 kb/s
  39. Channel(s) : 6 channels
  40. Channel layout : L R C LFE Ls Rs
  41. Sampling rate : 48.0 kHz
  42. Frame rate : 31.250 FPS (1536 SPF)
  43. Bit depth : 16 bits
  44. Compression mode : Lossy
  45. Stream size : 265 MiB (2%)
  46. Title : DUB [iTunes]
  47. Language : Russian
  48. Service kind : Complete Main
  49. Default : Yes
  50. Forced : No

  51. Audio Specs: Russian (Mallorn)
  52. Format : AC-3
  53. Format/Info : Audio Coding 3
  54. Commercial name : Dolby Digital
  55. Codec ID : A_AC3
  56. Duration : 1 h 36 min
  57. Bit rate mode : Constant
  58. Bit rate : 640 kb/s
  59. Channel(s) : 6 channels
  60. Channel layout : L R C LFE Ls Rs
  61. Sampling rate : 48.0 kHz
  62. Frame rate : 31.250 FPS (1536 SPF)
  63. Bit depth : 16 bits
  64. Compression mode : Lossy
  65. Stream size : 442 MiB (3%)
  66. Title : MVO [Mallorn]
  67. Language : Russian
  68. Service kind : Complete Main
  69. Default : No
  70. Forced : No

  71. Audio Specs: Ukrainian
  72. Format : AC-3
  73. Format/Info : Audio Coding 3
  74. Commercial name : Dolby Digital
  75. Codec ID : A_AC3
  76. Duration : 1 h 36 min
  77. Bit rate mode : Constant
  78. Bit rate : 192 kb/s
  79. Channel(s) : 2 channels
  80. Channel layout : L R
  81. Sampling rate : 48.0 kHz
  82. Frame rate : 31.250 FPS (1536 SPF)
  83. Bit depth : 16 bits
  84. Compression mode : Lossy
  85. Stream size : 133 MiB (1%)
  86. Title : MVO
  87. Language : Ukrainian
  88. Service kind : Complete Main
  89. Default : No
  90. Forced : No

  91. Audio Specs: English
  92. Format : E-AC-3
  93. Format/Info : Enhanced AC-3
  94. Commercial name : Dolby Digital Plus
  95. Codec ID : A_EAC3
  96. Duration : 1 h 36 min
  97. Bit rate mode : Constant
  98. Bit rate : 640 kb/s
  99. Channel(s) : 6 channels
  100. Channel layout : L R C LFE Ls Rs
  101. Sampling rate : 48.0 kHz
  102. Frame rate : 31.250 FPS (1536 SPF)
  103. Compression mode : Lossy
  104. Stream size : 442 MiB (3%)
  105. Language : English
  106. Service kind : Complete Main
  107. Default : No
  108. Forced : No
复制代码

致命摄影机 / 致命摄像头/身体摄像机4k Body Cam 2020)2160p WEB-DL HDR x265 5.1-4k电影下载

身体摄像机4k Body Cam 2020)2160p WEB-DL HDR x265 5.1【13.2 GB】
身体摄像机4k.txt
(103 Bytes)
回复

使用道具 举报

发烧友评论9

倒序浏览
月光麦田 发表于 2020-11-13 20:13:34 | 显示全部楼层
楼主发片辛苦啦
回复 支持 反对

使用道具 举报

chenzhenghui 发表于 2020-11-13 19:56:29 | 显示全部楼层

谢谢分享好电影
回复 支持 反对

使用道具 举报

gmdz 发表于 2020-11-11 00:27:02 | 显示全部楼层
感谢分享,下载。
回复 支持 反对

使用道具 举报

lywzj238 发表于 2020-11-10 08:08:06 | 显示全部楼层
谢谢分享好电影
回复 支持 反对

使用道具 举报

风雨无阻-77 发表于 2020-11-6 22:17:11 | 显示全部楼层
感觉有点黑命贵的意思。哈哈。
回复 支持 反对

使用道具 举报

xxw8888 发表于 2020-11-4 16:02:49 | 显示全部楼层
感谢楼主分享
回复 支持 反对

使用道具 举报

dongdong803 发表于 2020-11-4 14:57:26 | 显示全部楼层
这部电影不错。值得一看。
回复 支持 反对

使用道具 举报

Hao4k网友  发表于 2020-11-4 11:22:47
这个太牛了。
回复 支持 反对

使用道具

chnwxck 发表于 2020-11-3 18:05:50 | 显示全部楼层
这电影真是应景的很啊!
回复 支持 反对

使用道具 举报

您需要登录后才可以回帖 登录 | 立即注册

本版积分规则


0关注

30粉丝

83帖子

热门图文主题
热门主题
社区广告

在线客服

在线客服

服务时间 9:00—18:00

返回顶部

关注微信公众号第一时间推送精彩

官方微信

手机访问

Hao4K影音

专注4k家庭影音,提供家庭影音社区,家庭影音器材库,影音问答平台,影音商城,服务千万家庭影音用户。

本站内容部分由用户自主分享和转载自互联网,转载目的在于传递更多信息,并不代表本网赞同其观点和对其真实性负责。

如有侵权、违反国家法律政策行为,请联系我们,我们会第一时间及时清除和处理!

举报反馈邮箱:admin@hao4k.cn

Copyright  2019-2020  Hao4K影音粤公网安备 44030302001429号    ( 粤ICP备18155646号-1 )|网站地图