专注4K家庭影音, 服务千万家庭影音发烧友!

[待验证4K资源] 灼热的马鞍4k Blazing Saddles 1974 2160p-4k电影下载

碧池 发表于 2020-11-5 16:43:33 | 显示全部楼层
电影频道
电影封面:
片  名: 灼热的马鞍4k
电影分类: 喜剧 西部 
国  家: 美国 
年  代: 70年代
分 辨 率: 4K(3840x2160)
电影格式: MKV|REMUX 
画质标准: 其他 
音质编码: 其他AAC 
电影声道: 5.1声道 
帧数/FPS: 23.976 FPS
电影语言: 英文原版 
资源大小: 4.2 GB
导  演: 梅尔·布鲁克斯
豆瓣评分: 7.3 分
中文字幕: -
剧情简介: 荒凉的美国西部,一条铁路正在修建中,由于铁路将穿过石脊镇,预感当地地价将大幅上涨的政客海德利(哈维•科曼 Harvey Korman 饰)计划将镇上居民尽数驱逐。居民方面担忧遭袭,寄希望于州政府为他们派遣一位强力的警长,岂料海德利背后运作,使州长任命史上首位黑人警长巴特(克力文•李托 Cleavon Little 饰)保卫石脊镇。巴特原是一名筑路工人,因殴打工程监工被处以死刑,谁知在被行刑前夕命运居然全然逆转,逃过一命的巴特并不能轻松,他还要面对石脊镇居民的白眼和海德利一方的匪徒,在镇上的昔日神枪手吉姆(吉恩•怀尔德 Gene Wilder 饰)帮助下,巴特连续挫败海德利的人手,但是真正的硬仗还在等待着他……
神枪小子 / 闪亮的马鞍 / Mel Brooks' Blazing Saddles or Never Give a Saga an Even Break / 神枪小子/灼热的马鞍4k Blazing Saddles 1974 2160p Bluray x265 HEVC AI 10bit AAC 5.1 -4k电影信息
  1. Video
  2. ID : 1
  3. Format : HEVC
  4. Format/Info : High Efficiency Video Coding
  5. Codec ID : V_MPEGH/ISO/HEVC
  6. Duration : 1 h 32 min
  7. Bit rate : 6 001 kb/s
  8. Width : 3 840 pixels
  9. Height : 1 600 pixels
  10. Display aspect ratio : 2.40:1
  11. Frame rate mode : Constant
  12. Frame rate : 23.976 (24000/1001) FPS
  13. Color space : YUV
  14. Chroma subsampling : 4:2:0
  15. Bit depth : 10 bits
  16. Bits/(Pixel*Frame) : 0.041
  17. Stream size : 3.89 GiB (93%)
  18. Writing library : x265 3.2+9-971180b100f8:[Windows][GCC 9.2.0][64 bit] 10bit
  19. Encoding settings : cpuid=1111039 / frame-threads=3 / numa-pools=12 / wpp / no-pmode / no-pme / no-psnr / ssim / log-level=2 / input-csp=1 / input-res=3840x1600 / interlace=0 / total-frames=133657 / level-idc=0 / high-tier=1 / uhd-bd=0 / ref=4 / no-allow-non-conformance / no-repeat-headers / annexb / no-aud / no-hrd / info / hash=0 / no-temporal-layers / open-gop / min-keyint=23 / keyint=250 / gop-lookahead=0 / bframes=12 / b-adapt=2 / b-pyramid / bframe-bias=50 / rc-lookahead=80 / lookahead-slices=4 / scenecut=40 / radl=0 / no-splice / no-intra-refresh / ctu=64 / min-cu-size=8 / rect / no-amp / max-tu-size=32 / tu-inter-depth=1 / tu-intra-depth=1 / limit-tu=0 / rdoq-level=2 / dynamic-rd=0.00 / ssim-rd / signhide / no-tskip / nr-intra=0 / nr-inter=0 / constrained-intra / strong-intra-smoothing / max-merge=5 / limit-refs=3 / limit-modes / me=3 / subme=5 / merange=57 / temporal-mvp / no-frame-dup / no-hme / weightp / no-weightb / no-analyze-src-pics / deblock=0:0 / sao / no-sao-non-deblock / rd=4 / selective-sao=4 / early-skip / rskip / no-fast-intra / no-tskip-fast / no-cu-lossless / no-b-intra / splitrd-skip / rdpenalty=0 / psy-rd=3.50 / psy-rdoq=2.50 / no-rd-refine / no-lossless / cbqpoffs=0 / crqpoffs=0 / rc=abr / bitrate=6000 / qcomp=0.60 / qpstep=4 / stats-write=0 / stats-read=2 / cplxblur=20.0 / qblur=0.5 / ipratio=1.40 / pbratio=1.30 / aq-mode=3 / aq-strength=0.40 / cutree / zone-count=0 / no-strict-cbr / qg-size=32 / no-rc-grain / qpmax=69 / qpmin=0 / no-const-vbv / sar=0 / overscan=0 / videoformat=5 / range=0 / colorprim=2 / transfer=2 / colormatrix=2 / chromaloc=0 / display-window=0 / cll=0,0 / min-luma=0 / max-luma=1023 / log2-max-poc-lsb=8 / vui-timing-info / vui-hrd-info / slices=1 / no-opt-qp-pps / no-opt-ref-list-length-pps / multi-pass-opt-rps / scenecut-bias=0.05 / no-opt-cu-delta-qp / no-aq-motion / no-hdr / no-hdr-opt / no-dhdr10-opt / no-idr-recovery-sei / analysis-load / analysis-reuse-level=10 / scale-factor=0 / refine-intra=0 / refine-inter=0 / refine-mv=1 / refine-ctu-distortion=0 / limit-sao / ctu-info=0 / no-lowpass-dct / refine-analysis-type=0 / copy-pic=1 / max-ausize-factor=1.0 / no-dynamic-refine / no-single-sei / no-hevc-aq / no-svt / no-field / qp-adaptation-range=1.00
  20. Default : Yes
  21. Forced : No

  22. Audio #1
  23. ID : 2
  24. Format : AAC
  25. Format/Info : Advanced Audio Codec
  26. Format profile : LC
  27. Codec ID : A_AAC
  28. Duration : 1 h 32 min
  29. Bit rate : 366 kb/s
  30. Channel(s) : 6 channels
  31. Channel positions : Front: L C R, Side: L R, LFE
  32. Sampling rate : 48.0 kHz
  33. Frame rate : 46.875 FPS (1024 spf)
  34. Compression mode : Lossy
  35. Delay relative to video : 9 ms
  36. Stream size : 243 MiB (6%)
  37. Language : English
  38. Default : No
  39. Forced : No

  40. Audio #2
  41. ID : 3
  42. Format : AAC
  43. Format/Info : Advanced Audio Codec
  44. Format profile : HE-AAC / LC
  45. Codec ID : A_AAC
  46. Duration : 1 h 32 min
  47. Bit rate : 25.1 kb/s
  48. Channel(s) : 1 channel
  49. Channel positions : Front: C
  50. Sampling rate : 48.0 kHz / 24.0 kHz
  51. Frame rate : 23.438 FPS (1024 spf)
  52. Compression mode : Lossy
  53. Delay relative to video : 31 ms
  54. Stream size : 16.7 MiB (0%)
  55. Title : Commentary
  56. Language : English
  57. Default : No
  58. Forced : No

  59. Subtitle #1
  60. ID : 4
  61. Format : VobSub
  62. Muxing mode : zlib
  63. Codec ID : S_VOBSUB
  64. Codec ID/Info : Picture based subtitle format used on DVDs
  65. Duration : 1 h 30 min
  66. Bit rate : 10.9 kb/s
  67. Count of elements : 1262
  68. Stream size : 7.07 MiB (0%)
  69. Language : English
  70. Default : No
  71. Forced : No

  72. Subtitle #2
  73. ID : 5
  74. Format : VobSub
  75. Muxing mode : zlib
  76. Codec ID : S_VOBSUB
  77. Codec ID/Info : Picture based subtitle format used on DVDs
  78. Duration : 1 h 32 min
  79. Bit rate : 7 851 b/s
  80. Count of elements : 966
  81. Stream size : 5.19 MiB (0%)
  82. Language : Danish
  83. Default : No
  84. Forced : No

  85. Subtitle #3
  86. ID : 6
  87. Format : VobSub
  88. Muxing mode : zlib
  89. Codec ID : S_VOBSUB
  90. Codec ID/Info : Picture based subtitle format used on DVDs
  91. Duration : 1 h 32 min
  92. Bit rate : 8 254 b/s
  93. Count of elements : 977
  94. Stream size : 5.45 MiB (0%)
  95. Language : Finnish
  96. Default : No
  97. Forced : No
复制代码

神枪小子 / 闪亮的马鞍 / Mel Brooks' Blazing Saddles or Never Give a Saga an Even Break / 神枪小子/灼热的马鞍4k Blazing Saddles 1974 2160p Bluray x265 HEVC AI 10bit AAC 5.1 -4k电影下载

灼热的马鞍4k Blazing Saddles 1974 2160p Bluray x265 HEVC AI 10bit AAC 5.1【4.2 GB】
灼热的马鞍4k.txt
(103 Bytes)
回复

使用道具 举报

发烧友评论11

倒序浏览
lywzj238 发表于 3 天前 | 显示全部楼层
谢谢分享好电影
回复 支持 反对

使用道具 举报

nhddhr 发表于 4 天前 | 显示全部楼层
好电影,值得下载,速度如何
回复 支持 反对

使用道具 举报

13980049400 发表于 2020-11-11 21:27:55 | 显示全部楼层
感谢分享、收了
回复 支持 反对

使用道具 举报

xxw8888 发表于 2020-11-9 12:10:47 | 显示全部楼层
感谢分享、收了
回复 支持 反对

使用道具 举报

sunmark 发表于 2020-11-9 04:47:18 | 显示全部楼层
像是与热天午后差不多年代的老电影……感谢楼主
回复 支持 反对

使用道具 举报

lywzj238 发表于 2020-11-7 14:32:00 | 显示全部楼层
谢谢分享好电影
回复 支持 反对

使用道具 举报

风雨无阻-77 发表于 2020-11-6 22:21:10 | 显示全部楼层
难得的西部片,牛仔、骏马及荒凉的土地。
回复 支持 反对

使用道具 举报

mikkechen 发表于 2020-11-6 18:17:29 | 显示全部楼层

感谢分享、收了
回复 支持 反对

使用道具 举报

xyhycjyxg222 发表于 2020-11-6 17:20:48 | 显示全部楼层
感谢分享、收了
回复 支持 反对

使用道具 举报

Khaos 发表于 2020-11-6 14:35:52 | 显示全部楼层
感谢分享、收了
回复 支持 反对

使用道具 举报

sky2015 发表于 2020-11-5 18:23:59 | 显示全部楼层
感谢分享、收了
回复 支持 反对

使用道具 举报

您需要登录后才可以回帖 登录 | 立即注册

本版积分规则


0关注

28粉丝

81帖子

热门图文主题
热门主题
社区广告

在线客服

在线客服

服务时间 9:00—18:00

返回顶部

关注微信公众号第一时间推送精彩

官方微信

手机访问

Hao4K影音

专注4k家庭影音,提供家庭影音社区,家庭影音器材库,影音问答平台,影音商城,服务千万家庭影音用户。

本站内容部分由用户自主分享和转载自互联网,转载目的在于传递更多信息,并不代表本网赞同其观点和对其真实性负责。

如有侵权、违反国家法律政策行为,请联系我们,我们会第一时间及时清除和处理!

举报反馈邮箱:admin@hao4k.cn

Copyright  2019-2020  Hao4K影音粤公网安备 44030302001429号    ( 粤ICP备18155646号-1 )|网站地图