专注4K家庭影音, 服务千万家庭影音发烧友!

[英剧] 狂野日本4k Japan.Earths.Enchanted.Islands.S01.2160p.STAN.WEBRip.AAC5.1.x265-4k纪录片下载

大红色 发表于 2020-11-6 16:20:57 | 显示全部楼层
电视剧频道
电视剧封面:
电视剧名: 狂野日本4k
年  代: 2015  
国  家: 英国
类  别: 纪录片 
语  言: 英语
字  幕: 英文原版
上映日期: 2015-06-08
文件格式: mkv    
视频效果: 4K(3840x2160)    
资源大小: 15.47 GB
片  长: 60 分钟
导  演: Gavin Maxwell
剧情简介: 本系列纪录片由Michelle Dockery作旁白。从常年冰雪覆盖的山峰到温暖的亚热带气候,日本的自然景观非常丰富多彩。这些岛屿上生活着许许多多的野生动物;而且为了适应各种极端的环境,这些动物和人类的生活经常交织在一起。
  BBC这次的日本生态之旅重点放在了人与动物的关系上,风格上类似于人类星球那种猎奇拍法,探寻日本众多岛屿中那些特殊环境下的不为人知的生命故事。
日本:地球的魅影之岛 / 野性东瀛 / 野性日本 / 狂野日 / 日本:地球迷人之岛 / Japan: Earth’s Enchanted Islands/狂野日本4k Japan.Earths.Enchanted.Islands.S01.2160p.STAN.WEBRip.AAC5.1.x265-4k纪录片信息
  1. Video
  2. ID : 1
  3. Format : HEVC
  4. Format/Info : High Efficiency Video Coding
  5. Format profile : Main@L5@High
  6. Codec ID : V_MPEGH/ISO/HEVC
  7. Duration : 49 min 46 s
  8. Bit rate : 14.6 Mb/s
  9. Width : 3 840 pixels
  10. Height : 2 160 pixels
  11. Display aspect ratio : 16:9
  12. Frame rate mode : Constant
  13. Frame rate : 25.000 FPS
  14. Color space : YUV
  15. Chroma subsampling : 4:2:0
  16. Bit depth : 8 bits
  17. Bits/(Pixel*Frame) : 0.070
  18. Stream size : 5.06 GiB (97%)
  19. Default : Yes
  20. Forced : No

  21. Audio
  22. ID : 2
  23. Format : AAC LC
  24. Format/Info : Advanced Audio Codec Low Complexity
  25. Codec ID : A_AAC-2
  26. Duration : 49 min 46 s
  27. Bit rate : 445 kb/s
  28. Channel(s) : 6 channels
  29. Channel layout : C L R Ls Rs LFE
  30. Sampling rate : 48.0 kHz
  31. Frame rate : 46.875 FPS (1024 SPF)
  32. Compression mode : Lossy
  33. Stream size : 159 MiB (3%)
  34. Language : English
  35. Default : Yes
  36. Forced : No

  37. Text
  38. ID : 3
  39. Format : UTF-8
  40. Codec ID : S_TEXT/UTF8
  41. Codec ID/Info : UTF-8 Plain Text
  42. Duration : 49 min 10 s
  43. Bit rate : 54 b/s
  44. Count of elements : 512
  45. Stream size : 19.6 KiB (0%)
  46. Language : English
  47. Default : No
  48. Forced : No
复制代码

日本:地球的魅影之岛 / 野性东瀛 / 野性日本 / 狂野日 / 日本:地球迷人之岛 / Japan: Earth’s Enchanted Islands/狂野日本4k Japan.Earths.Enchanted.Islands.S01.2160p.STAN.WEBRip.AAC5.1.x265-4k纪录片下载

狂野日本4k Japan.Earths.Enchanted.Islands.S01.2160p.STAN.WEBRip.AAC5.1.x265【15.47 GB】
狂野日本4k Japan.Earths.Enchanted.Islands.S01.2160p.STAN.WEBRip.AAC5.1.x265-play.torrent
(78.22 KB)
回复

使用道具 举报

发烧友评论10

倒序浏览
j4sonchi 发表于 昨天 15:12 | 显示全部楼层
感谢分享,喜欢纪录片
回复 支持 反对

使用道具 举报

ivanlk 发表于 5 天前 | 显示全部楼层
自带英文字幕。,potplayer有的时候就能实时在线翻译,有时候却不能,也不知道是怎么回事儿。
回复 支持 反对

使用道具 举报

wangfs235 发表于 2020-11-9 19:49:58 | 显示全部楼层
感谢分享,喜欢纪录片
回复 支持 反对

使用道具 举报

5555pmn 发表于 2020-11-9 09:17:16 | 显示全部楼层
消灭0回复!!

感谢分享,收藏下吧
回复 支持 反对

使用道具 举报

Andy2046 发表于 2020-11-8 15:18:54 | 显示全部楼层
感谢,可惜没有中字,知道哪里能下载到字幕的朋友给个链接,多谢!
回复 支持 反对

使用道具 举报

您需要登录后才可以回帖 登录 | 立即注册

本版积分规则

在线客服

在线客服

服务时间 9:00—18:00

返回顶部

关注微信公众号第一时间推送精彩

官方微信

手机访问

Hao4K影音

专注4k家庭影音,提供家庭影音社区,家庭影音器材库,影音问答平台,影音商城,服务千万家庭影音用户。

本站内容部分由用户自主分享和转载自互联网,转载目的在于传递更多信息,并不代表本网赞同其观点和对其真实性负责。

如有侵权、违反国家法律政策行为,请联系我们,我们会第一时间及时清除和处理!

举报反馈邮箱:admin@hao4k.cn

Copyright  2019-2020  Hao4K影音粤公网安备 44030302001429号    ( 粤ICP备18155646号-1 )|网站地图