专注4K家庭影音, 服务千万家庭影音发烧友!

杀死比尔2 4k Kill Bill Vol.2 2004 Featurettes 2160p-4k电影下载

碧池 发表于 2020-11-9 17:54:03 | 显示全部楼层
杀死比尔2 4k Kill Bill Vol.2 2004  Featurettes 2160p Bluray x265 HEVC AI 10bit AAC 5.1-4k电影信息
  1. Video
  2. ID : 1
  3. Format : HEVC
  4. Format/Info : High Efficiency Video Coding
  5. Codec ID : V_MPEGH/ISO/HEVC
  6. Duration : 2 h 16 min
  7. Bit rate : 6 000 kb/s
  8. Width : 3 840 pixels
  9. Height : 1 600 pixels
  10. Display aspect ratio : 2.40:1
  11. Frame rate mode : Constant
  12. Frame rate : 23.976 (24000/1001) FPS
  13. Color space : YUV
  14. Chroma subsampling : 4:2:0
  15. Bit depth : 10 bits
  16. Bits/(Pixel*Frame) : 0.041
  17. Stream size : 5.74 GiB (91%)
  18. Writing library : x265 3.2+9-971180b100f8:[Windows][GCC 9.2.0][64 bit] 10bit
  19. Encoding settings : cpuid=1111039 / frame-threads=4 / numa-pools=16 / wpp / no-pmode / no-pme / no-psnr / ssim / log-level=2 / input-csp=1 / input-res=3840x1600 / interlace=0 / total-frames=197032 / level-idc=0 / high-tier=1 / uhd-bd=0 / ref=4 / no-allow-non-conformance / no-repeat-headers / annexb / no-aud / no-hrd / info / hash=0 / no-temporal-layers / open-gop / min-keyint=23 / keyint=250 / gop-lookahead=0 / bframes=8 / b-adapt=2 / b-pyramid / bframe-bias=40 / rc-lookahead=80 / lookahead-slices=4 / scenecut=40 / radl=0 / no-splice / no-intra-refresh / ctu=64 / min-cu-size=8 / rect / no-amp / max-tu-size=32 / tu-inter-depth=1 / tu-intra-depth=1 / limit-tu=0 / rdoq-level=2 / dynamic-rd=0.00 / ssim-rd / signhide / no-tskip / nr-intra=0 / nr-inter=0 / constrained-intra / strong-intra-smoothing / max-merge=3 / limit-refs=3 / limit-modes / me=3 / subme=3 / merange=57 / temporal-mvp / no-frame-dup / no-hme / weightp / no-weightb / no-analyze-src-pics / deblock=0:0 / sao / no-sao-non-deblock / rd=4 / selective-sao=4 / early-skip / rskip / no-fast-intra / no-tskip-fast / no-cu-lossless / no-b-intra / splitrd-skip / rdpenalty=0 / psy-rd=3.50 / psy-rdoq=2.50 / no-rd-refine / no-lossless / cbqpoffs=0 / crqpoffs=0 / rc=abr / bitrate=6000 / qcomp=0.60 / qpstep=4 / stats-write=0 / stats-read=2 / cplxblur=20.0 / qblur=0.5 / ipratio=1.40 / pbratio=1.30 / aq-mode=3 / aq-strength=0.40 / cutree / zone-count=0 / no-strict-cbr / qg-size=32 / no-rc-grain / qpmax=69 / qpmin=0 / no-const-vbv / sar=0 / overscan=0 / videoformat=5 / range=0 / colorprim=2 / transfer=2 / colormatrix=2 / chromaloc=0 / display-window=0 / cll=0,0 / min-luma=0 / max-luma=1023 / log2-max-poc-lsb=8 / vui-timing-info / vui-hrd-info / slices=1 / no-opt-qp-pps / no-opt-ref-list-length-pps / multi-pass-opt-rps / scenecut-bias=0.05 / no-opt-cu-delta-qp / no-aq-motion / no-hdr / no-hdr-opt / no-dhdr10-opt / no-idr-recovery-sei / analysis-load / analysis-reuse-level=10 / scale-factor=0 / refine-intra=0 / refine-inter=0 / refine-mv=1 / refine-ctu-distortion=0 / limit-sao / ctu-info=0 / no-lowpass-dct / refine-analysis-type=0 / copy-pic=1 / max-ausize-factor=1.0 / no-dynamic-refine / no-single-sei / no-hevc-aq / no-svt / no-field / qp-adaptation-range=1.00
  20. Default : Yes
  21. Forced : No

  22. Audio #1
  23. ID : 2
  24. Format : AAC
  25. Format/Info : Advanced Audio Codec
  26. Format profile : LC
  27. Codec ID : A_AAC
  28. Duration : 2 h 16 min
  29. Bit rate : 407 kb/s
  30. Channel(s) : 6 channels
  31. Channel positions : Front: L C R, Side: L R, LFE
  32. Sampling rate : 48.0 kHz
  33. Frame rate : 46.875 FPS (1024 spf)
  34. Compression mode : Lossy
  35. Delay relative to video : 9 ms
  36. Stream size : 399 MiB (6%)
  37. Title : Surround 5.1
  38. Language : English
  39. Default : No
  40. Forced : No

  41. Audio #2
  42. ID : 3
  43. Format : AAC
  44. Format/Info : Advanced Audio Codec
  45. Format profile : LC
  46. Codec ID : A_AAC
  47. Duration : 2 h 16 min
  48. Bit rate : 80.3 kb/s
  49. Channel(s) : 2 channels
  50. Channel positions : Front: L R
  51. Sampling rate : 48.0 kHz
  52. Frame rate : 46.875 FPS (1024 spf)
  53. Compression mode : Lossy
  54. Delay relative to video : 9 ms
  55. Stream size : 78.6 MiB (1%)
  56. Language : Italian
  57. Default : No
  58. Forced : No

  59. Audio #3
  60. ID : 4
  61. Format : AAC
  62. Format/Info : Advanced Audio Codec
  63. Format profile : LC
  64. Codec ID : A_AAC
  65. Duration : 2 h 16 min
  66. Bit rate : 79.0 kb/s
  67. Channel(s) : 2 channels
  68. Channel positions : Front: L R
  69. Sampling rate : 48.0 kHz
  70. Frame rate : 46.875 FPS (1024 spf)
  71. Compression mode : Lossy
  72. Delay relative to video : 9 ms
  73. Stream size : 77.4 MiB (1%)
  74. Language : German
  75. Default : No
  76. Forced : No

  77. Subtitle #1
  78. ID : 5
  79. Format : PGS
  80. Muxing mode : zlib
  81. Codec ID : S_HDMV/PGS
  82. Codec ID/Info : Picture based subtitle format used on BDs/HD-DVDs
  83. Duration : 2 h 16 min
  84. Bit rate : 17.6 kb/s
  85. Count of elements : 2356
  86. Stream size : 17.2 MiB (0%)
  87. Language : English
  88. Default : No
  89. Forced : No

  90. Subtitle #2
  91. ID : 6
  92. Format : VobSub
  93. Muxing mode : zlib
  94. Codec ID : S_VOBSUB
  95. Codec ID/Info : Picture based subtitle format used on DVDs
  96. Duration : 2 h 16 min
  97. Bit rate : 5 953 b/s
  98. Count of elements : 1391
  99. Stream size : 5.82 MiB (0%)
  100. Language : English
  101. Default : No
  102. Forced : No

  103. Subtitle #3
  104. ID : 7
  105. Format : VobSub
  106. Muxing mode : zlib
  107. Codec ID : S_VOBSUB
  108. Codec ID/Info : Picture based subtitle format used on DVDs
  109. Duration : 2 h 16 min
  110. Bit rate : 4 608 b/s
  111. Count of elements : 1173
  112. Stream size : 4.51 MiB (0%)
  113. Language : Italian
  114. Default : No
  115. Forced : No

  116. Subtitle #4
  117. ID : 8
  118. Format : VobSub
  119. Muxing mode : zlib
  120. Codec ID : S_VOBSUB
  121. Codec ID/Info : Picture based subtitle format used on DVDs
  122. Duration : 2 h 16 min
  123. Bit rate : 4 841 b/s
  124. Count of elements : 1173
  125. Stream size : 4.73 MiB (0%)
  126. Language : Spanish
  127. Default : No
  128. Forced : No

  129. Subtitle #5
  130. ID : 9
  131. Format : VobSub
  132. Muxing mode : zlib
  133. Codec ID : S_VOBSUB
  134. Codec ID/Info : Picture based subtitle format used on DVDs
  135. Duration : 2 h 16 min
  136. Bit rate : 6 100 b/s
  137. Count of elements : 1162
  138. Stream size : 5.96 MiB (0%)
  139. Language : English
  140. Default : No
  141. Forced : No

  142. Subtitle #6
  143. ID : 10
  144. Format : VobSub
  145. Muxing mode : zlib
  146. Codec ID : S_VOBSUB
  147. Codec ID/Info : Picture based subtitle format used on DVDs
  148. Duration : 31 min 21 s
  149. Bit rate : 1 477 b/s
  150. Count of elements : 81
  151. Stream size : 339 KiB (0%)
  152. Language : English
  153. Default : No
  154. Forced : No

  155. Subtitle #7
  156. ID : 11
  157. Format : VobSub
  158. Muxing mode : zlib
  159. Codec ID : S_VOBSUB
  160. Codec ID/Info : Picture based subtitle format used on DVDs
  161. Duration : 2 h 2 min
  162. Bit rate : 379 b/s
  163. Count of elements : 91
  164. Stream size : 339 KiB (0%)
  165. Language : Italian
  166. Default : No
  167. Forced : No

  168. Subtitle #8
  169. ID : 12
  170. Format : VobSub
  171. Muxing mode : zlib
  172. Codec ID : S_VOBSUB
  173. Codec ID/Info : Picture based subtitle format used on DVDs
  174. Duration : 2 h 2 min
  175. Bit rate : 430 b/s
  176. Count of elements : 94
  177. Stream size : 385 KiB (0%)
  178. Language : Spanish
  179. Default : No
  180. Forced : No

  181. Subtitle #9
  182. ID : 13
  183. Format : VobSub
  184. Muxing mode : zlib
  185. Codec ID : S_VOBSUB
  186. Codec ID/Info : Picture based subtitle format used on DVDs
  187. Duration : 990 ms
  188. Bit rate : 17.7 kb/s
  189. Count of elements : 1
  190. Stream size : 2.14 KiB (0%)
  191. Language : Russian
  192. Default : No
  193. Forced : No

  194. Subtitle #10
  195. ID : 14
  196. Format : UTF-8
  197. Codec ID : S_TEXT/UTF8
  198. Codec ID/Info : UTF-8 Plain Text
  199. Duration : 2 h 16 min
  200. Bit rate : 52 b/s
  201. Count of elements : 920
  202. Stream size : 52.3 KiB (0%)
  203. Language : Arabic
  204. Default : No
  205. Forced : No

  206. Subtitle #11
  207. ID : 15
  208. Format : UTF-8
  209. Codec ID : S_TEXT/UTF8
  210. Codec ID/Info : UTF-8 Plain Text
  211. Duration : 2 h 16 min
  212. Bit rate : 35 b/s
  213. Count of elements : 929
  214. Stream size : 35.1 KiB (0%)
  215. Language : Danish
  216. Default : No
  217. Forced : No

  218. Subtitle #12
  219. ID : 16
  220. Format : UTF-8
  221. Codec ID : S_TEXT/UTF8
  222. Codec ID/Info : UTF-8 Plain Text
  223. Duration : 2 h 4 min
  224. Bit rate : 39 b/s
  225. Count of elements : 973
  226. Stream size : 36.1 KiB (0%)
  227. Language : Dutch
  228. Default : No
  229. Forced : No

  230. Subtitle #13
  231. ID : 17
  232. Format : UTF-8
  233. Codec ID : S_TEXT/UTF8
  234. Codec ID/Info : UTF-8 Plain Text
  235. Duration : 2 h 16 min
  236. Bit rate : 62 b/s
  237. Count of elements : 1131
  238. Stream size : 62.5 KiB (0%)
  239. Language : Persian
  240. Default : No
  241. Forced : No

  242. Subtitle #14
  243. ID : 18
  244. Format : UTF-8
  245. Codec ID : S_TEXT/UTF8
  246. Codec ID/Info : UTF-8 Plain Text
  247. Duration : 2 h 16 min
  248. Bit rate : 37 b/s
  249. Count of elements : 1180
  250. Stream size : 37.1 KiB (0%)
  251. Language : French
  252. Default : No
  253. Forced : No

  254. Subtitle #15
  255. ID : 19
  256. Format : UTF-8
  257. Codec ID : S_TEXT/UTF8
  258. Codec ID/Info : UTF-8 Plain Text
  259. Duration : 2 h 11 min
  260. Bit rate : 41 b/s
  261. Count of elements : 1168
  262. Stream size : 39.9 KiB (0%)
  263. Language : German
  264. Default : No
  265. Forced : No

  266. Subtitle #16
  267. ID : 20
  268. Format : UTF-8
  269. Codec ID : S_TEXT/UTF8
  270. Codec ID/Info : UTF-8 Plain Text
  271. Duration : 2 h 17 min
  272. Bit rate : 38 b/s
  273. Count of elements : 1132
  274. Stream size : 38.5 KiB (0%)
  275. Language : Indonesian
  276. Default : No
  277. Forced : No

  278. Subtitle #17
  279. ID : 21
  280. Format : UTF-8
  281. Codec ID : S_TEXT/UTF8
  282. Codec ID/Info : UTF-8 Plain Text
  283. Duration : 2 h 16 min
  284. Bit rate : 33 b/s
  285. Count of elements : 929
  286. Stream size : 34.0 KiB (0%)
  287. Language : Norwegian
  288. Default : No
  289. Forced : No

  290. Subtitle #18
  291. ID : 22
  292. Format : UTF-8
  293. Codec ID : S_TEXT/UTF8
  294. Codec ID/Info : UTF-8 Plain Text
  295. Duration : 2 h 0 min
  296. Bit rate : 50 b/s
  297. Count of elements : 1124
  298. Stream size : 44.2 KiB (0%)
  299. Language : Vietnamese
  300. Default : No
  301. Forced : No

  302. Menu
  303. 00:00:00.000 : en:Chapter 01
  304. 00:02:01.121 : en:Chapter 02
  305. 00:05:28.411 : en:Chapter 03
  306. 00:14:50.806 : en:Chapter 04
  307. 00:18:08.420 : en:Chapter 05
  308. 00:22:52.913 : en:Chapter 06
  309. 00:30:55.603 : en:Chapter 07
  310. 00:39:14.185 : en:Chapter 08
  311. 00:57:33.783 : en:Chapter 09
  312. 01:03:06.908 : en:Chapter 10
  313. 01:14:42.060 : en:Chapter 11
  314. 01:21:13.952 : en:Chapter 12
  315. 01:27:48.346 : en:Chapter 13
  316. 01:32:15.154 : en:Chapter 14
  317. 01:40:08.043 : en:Chapter 15
  318. 01:49:35.986 : en:Chapter 16
  319. 01:55:12.572 : en:Chapter 17
  320. 02:02:08.904 : en:Chapter 18
  321. 02:04:03.185 : en:Chapter 19
  322. 02:16:56.833 : en:Chapter 20
复制代码

杀死比尔2 4k Kill Bill Vol.2 2004  Featurettes 2160p Bluray x265 HEVC AI 10bit AAC 5.1-4k电影下载

杀死比尔2 4k Kill Bill Vol.2 2004  Featurettes 2160p Bluray x265 HEVC AI 10bit AAC 5.1【6.6 GB】
杀死比尔2 4k.txt
(90 Bytes)
杀死比尔2.jpg
回复

使用道具 举报

发烧友评论23

倒序浏览
argp 发表于 2020-11-17 09:46:49 | 显示全部楼层
先顶后看                             
回复 支持 反对

使用道具 举报

苏默金武 发表于 2020-11-10 14:44:54 | 显示全部楼层
https://www.hao4k.cn/thread-51072-1-1.html  简英完美双字幕已发!!!
回复 支持 反对

使用道具 举报

vicsanlib 发表于 3 天前 | 显示全部楼层
谢谢楼主分享谢谢楼主分享
回复 支持 反对

使用道具 举报

vicsanlib 发表于 3 天前 | 显示全部楼层
多谢楼主,感谢分享!
回复 支持 反对

使用道具 举报

iqdys 发表于 6 天前 | 显示全部楼层
这是部很好看的片子啊。谢谢楼主分享
回复 支持 反对

使用道具 举报

hw99sc 发表于 2020-11-15 13:50:01 | 显示全部楼层
谢谢楼主分享
回复 支持 反对

使用道具 举报

蓝天白_HZ9Ge 发表于 2020-11-14 22:52:46 | 显示全部楼层
这片的4K画质应该差不了,感受一下!
回复 支持 反对

使用道具 举报

tlbtx 发表于 2020-11-14 11:02:47 | 显示全部楼层
回复下载看电影,谢谢楼主分享。
回复 支持 反对

使用道具 举报

kingjlc 发表于 2020-11-13 21:34:18 | 显示全部楼层
谢谢楼主分享谢谢楼主分享
回复 支持 反对

使用道具 举报

kingjlc 发表于 2020-11-13 21:33:45 | 显示全部楼层
谢谢楼主分享
回复 支持 反对

使用道具 举报

zjfr 发表于 2020-11-13 07:55:02 | 显示全部楼层
前几天刚下了上半部,真好接着来,感谢楼主分享
回复 支持 反对

使用道具 举报

snakewyl 发表于 2020-11-12 23:32:37 | 显示全部楼层
好片,顶一个再说!!!谢谢分享,怎么只有6G大小?
回复 支持 反对

使用道具 举报

buildren 发表于 2020-11-12 13:11:02 | 显示全部楼层
谢谢大佬分享!
回复 支持 反对

使用道具 举报

lywzj238 发表于 2020-11-12 09:27:35 | 显示全部楼层
谢谢分享好电影
回复 支持 反对

使用道具 举报

hx163 发表于 2020-11-11 23:12:56 | 显示全部楼层
好片,顶一个再说!!!谢谢分享,怎么只有6G大小?
回复 支持 反对

使用道具 举报

秋天的树 发表于 2020-11-11 10:27:35 | 显示全部楼层

顶一个再说!!!谢谢分享
回复 支持 反对

使用道具 举报

w600825 发表于 2020-11-11 10:18:00 | 显示全部楼层
顶一个再说!!!谢谢分享
回复 支持 反对

使用道具 举报

您需要登录后才可以回帖 登录 | 立即注册

本版积分规则


0关注

30粉丝

81帖子

热门图文主题
热门主题
社区广告

在线客服

在线客服

服务时间 9:00—18:00

返回顶部

关注微信公众号第一时间推送精彩

官方微信

手机访问

Hao4K影音

专注4k家庭影音,提供家庭影音社区,家庭影音器材库,影音问答平台,影音商城,服务千万家庭影音用户。

本站内容部分由用户自主分享和转载自互联网,转载目的在于传递更多信息,并不代表本网赞同其观点和对其真实性负责。

如有侵权、违反国家法律政策行为,请联系我们,我们会第一时间及时清除和处理!

举报反馈邮箱:admin@hao4k.cn

Copyright  2019-2020  Hao4K影音粤公网安备 44030302001429号    ( 粤ICP备18155646号-1 )|网站地图