专注4K家庭影音, 服务千万家庭影音发烧友!

[美剧] 黑暗物质三部曲 第二季4k His.Dark.Materials.2020.S02E01.The.City.of.Magpies.2160p.WEBRip.x265.10bit.HDR.HLG.DDP5.1-4k美剧下载

大红色 发表于 2020-11-10 10:14:36 | 显示全部楼层
电视剧频道
电视剧封面:
电视剧名: 黑暗物质三部曲 第二季4k
年  代: 2020  
国  家: 美国
类  别: 冒险 奇幻 
语  言: 英语
字  幕: 英文原版
上映日期: 2020-11-16
文件格式: mkv    
视频效果: 4K(3840x2160)    
资源大小: 6.13 GB
片  长: 60 分钟
导  演: 杰米·奇尔兹
剧情简介:  BBC已正式增订《黑暗物质三部曲》第二季,第二季共八集。该剧改编自菲利普·普尔曼同名奇幻三部曲小说,故事围绕小孤女莱拉在平行宇宙中的冒险经历展开。
黑暗元素(台) / 黑质三部曲 / 黑暗三部曲 / 魔法神刀 / The Subtle Knife/黑暗物质三部曲 第二季4k His.Dark.Materials.2020.S02E01.The.City.of.Magpies.2160p.WEBRip.x265.10bit.HDR.HLG.DDP5.1-4k美剧信息
  1. Video
  2. ID : 1
  3. Format : HEVC
  4. Format/Info : High Efficiency Video Coding
  5. Format profile : Main 10@L5.1@Main
  6. Codec ID : V_MPEGH/ISO/HEVC
  7. Duration : 46 min 21 s
  8. Bit rate : 18.3 Mb/s
  9. Width : 3 840 pixels
  10. Height : 2 160 pixels
  11. Display aspect ratio : 16:9
  12. Frame rate mode : Constant
  13. Frame rate : 25.000 FPS
  14. Standard : Component
  15. Color space : YUV
  16. Chroma subsampling : 4:2:0
  17. Bit depth : 10 bits
  18. Bits/(Pixel*Frame) : 0.088
  19. Stream size : 5.92 GiB (97%)
  20. Default : Yes
  21. Forced : No
  22. Color range : Limited
  23. Color primaries : BT.2020
  24. Transfer characteristics : HLG / BT.2020 (10-bit)
  25. Matrix coefficients : BT.2020 non-constant

  26. Audio
  27. ID : 4
  28. Format : E-AC-3
  29. Format/Info : Enhanced AC-3
  30. Commercial name : Dolby Digital Plus
  31. Codec ID : A_EAC3
  32. Duration : 46 min 25 s
  33. Bit rate mode : Constant
  34. Bit rate : 640 kb/s
  35. Channel(s) : 6 channels
  36. Channel layout : L R C LFE Ls Rs
  37. Sampling rate : 48.0 kHz
  38. Frame rate : 31.250 FPS (1536 SPF)
  39. Compression mode : Lossy
  40. Stream size : 213 MiB (3%)
  41. Language : English
  42. Service kind : Complete Main
  43. Default : No
  44. Forced : No

  45. Text #1
  46. ID : 2
  47. Format : UTF-8
  48. Codec ID : S_TEXT/UTF8
  49. Codec ID/Info : UTF-8 Plain Text
  50. Duration : 45 min 2 s
  51. Bit rate : 119 b/s
  52. Count of elements : 576
  53. Stream size : 39.4 KiB (0%)
  54. Language : English
  55. Default : No
  56. Forced : No

  57. Text #2
  58. ID : 3
  59. Format : UTF-8
  60. Codec ID : S_TEXT/UTF8
  61. Codec ID/Info : UTF-8 Plain Text
  62. Duration : 45 min 2 s
  63. Bit rate : 119 b/s
  64. Count of elements : 576
  65. Stream size : 39.4 KiB (0%)
  66. Title : SDH
  67. Language : English
  68. Default : No
  69. Forced : No
复制代码

黑暗元素(台) / 黑质三部曲 / 黑暗三部曲 / 魔法神刀 / The Subtle Knife/黑暗物质三部曲 第二季4k His.Dark.Materials.2020.S02E01.The.City.of.Magpies.2160p.WEBRip.x265.10bit.HDR.HLG.DDP5.1-4k美剧下载

黑暗物质三部曲 第二季4k His.Dark.Materials.2020.S02E02.The.Cave.2160p.WEBRip.x265.10bit.HDR.HLG.DDP5.1【6.60 GB】
[Hao4k]黑暗物质三部曲 第二季4k His.Dark.Materials.2020.S02E02.The.Cave.2160p.WEB.torrent
(33.57 KB)
回复

使用道具 举报

发烧友评论6

倒序浏览
lgm8611 发表于 2020-11-18 15:47:27 | 显示全部楼层
字幕找不到。
回复 支持 反对

使用道具 举报

goyn 发表于 2020-11-17 17:37:16 | 显示全部楼层
不是 HDR  是 SDR
回复 支持 反对

使用道具 举报

关键精 发表于 2020-11-16 00:28:24 | 显示全部楼层
很不错的剧集。
字幕 http://tu.jstucdn.com/ftp/2020/1109/531fbf7d581affd1cd0f15249b04c42c.rar
回复 支持 反对

使用道具 举报

guilty45 发表于 2020-11-12 11:09:11 | 显示全部楼层
才更了一集吗?还是等全了再一起下吧
回复 支持 反对

使用道具 举报

Skywalker.WHL 发表于 2020-11-11 14:17:32 | 显示全部楼层
第一季还没看完,第二季就开始了
回复 支持 反对

使用道具 举报

您需要登录后才可以回帖 登录 | 立即注册

本版积分规则

在线客服

在线客服

服务时间 9:00—18:00

返回顶部

关注微信公众号第一时间推送精彩

官方微信

手机访问

Hao4K影音

专注4k家庭影音,提供家庭影音社区,家庭影音器材库,影音问答平台,影音商城,服务千万家庭影音用户。

本站内容部分由用户自主分享和转载自互联网,转载目的在于传递更多信息,并不代表本网赞同其观点和对其真实性负责。

如有侵权、违反国家法律政策行为,请联系我们,我们会第一时间及时清除和处理!

举报反馈邮箱:admin@hao4k.cn

Copyright  2019-2020  Hao4K影音粤公网安备 44030302001429号    ( 粤ICP备18155646号-1 )|网站地图