专注4K家庭影音, 服务千万家庭影音发烧友!

[美剧] 黑暗物质三部曲 第一季4k His.Dark.Materials.2019.S01.2160p.WEBRip.x265.10bit.HDR.HLG.DTS-HD.MA.5.1-4k美剧下载

大红色 发表于 2020-11-10 10:23:23 | 显示全部楼层
电视剧频道
电视剧封面:
电视剧名: 黑暗物质三部曲 第一季4k
年  代: 2019  
国  家: 美国
类  别: 冒险 奇幻 
语  言: 英语
字  幕: 英文原版
上映日期: 2019-11-04
文件格式: mkv    
视频效果: 4K(3840x2160)    
资源大小: 61.53 GB
片  长: 60 分钟
导  演: 汤姆·霍伯 / 杰米·奇尔兹 / 奥图·巴瑟赫斯特 / 安东尼·拜恩 / 尤洛斯·林 / 威廉·麦格雷戈
剧情简介: 故事发生在不同于现实的异世界中。在这个世界中,所有的人类均拥有被称为守护精灵的动物同伴,这些动物是人类灵魂的具象体现。女主角莱拉·贝拉奎亚成长于英国牛津的约旦学院。在她前往伦敦寻找失踪的朋友罗杰的过程中,莱拉发现一系列儿童失踪事件与神秘物质尘埃有所关联。随着故事展开,她还发现了涉及到阿斯瑞尔勋爵和玛莉莎·库尔特的危险秘密。
黄金罗盘 / 黑质三部曲 / 黑暗三部曲 / 黑暗元素(台)/黑暗物质三部曲 第一季4k His.Dark.Materials.2019.S01.2160p.WEBRip.x265.10bit.HDR.HLG.DTS-HD.MA.5.1-4k美剧信息
  1. Video
  2. ID : 1
  3. Format : HEVC
  4. Format/Info : High Efficiency Video Coding
  5. Format profile : Main 10@L5.1@Main
  6. Codec ID : V_MPEGH/ISO/HEVC
  7. Duration : 55 min 3 s
  8. Bit rate : 18.6 Mb/s
  9. Width : 3 840 pixels
  10. Height : 2 160 pixels
  11. Display aspect ratio : 16:9
  12. Frame rate mode : Variable
  13. Frame rate : 25.000 FPS
  14. Standard : Component
  15. Color space : YUV
  16. Chroma subsampling : 4:2:0
  17. Bit depth : 10 bits
  18. Bits/(Pixel*Frame) : 0.090
  19. Stream size : 7.17 GiB (91%)
  20. Default : Yes
  21. Forced : No
  22. Color range : Limited
  23. Color primaries : BT.2020
  24. Transfer characteristics : HLG
  25. transfer_characteristics_Original : HLG / BT.2020 (10-bit)
  26. Matrix coefficients : BT.2020 non-constant

  27. Audio
  28. ID : 2
  29. Format : DTS XLL
  30. Format/Info : Digital Theater Systems
  31. Commercial name : DTS-HD Master Audio
  32. Codec ID : A_DTS
  33. Duration : 55 min 2 s
  34. Bit rate mode : Variable
  35. Bit rate : 1 744 kb/s
  36. Channel(s) : 6 channels
  37. Channel layout : C L R Ls Rs LFE
  38. Sampling rate : 48.0 kHz
  39. Frame rate : 93.750 FPS (512 SPF)
  40. Bit depth : 16 bits
  41. Compression mode : Lossless
  42. Delay relative to video : 9 ms
  43. Stream size : 687 MiB (9%)
  44. Language : English
  45. Default : Yes
  46. Forced : No

  47. Text #1
  48. ID : 3
  49. Format : UTF-8
  50. Codec ID : S_TEXT/UTF8
  51. Codec ID/Info : UTF-8 Plain Text
  52. Duration : 53 min 52 s
  53. Bit rate : 61 b/s
  54. Count of elements : 795
  55. Stream size : 24.3 KiB (0%)
  56. Language : English
  57. Default : No
  58. Forced : No

  59. Text #2
  60. ID : 4
  61. Format : UTF-8
  62. Codec ID : S_TEXT/UTF8
  63. Codec ID/Info : UTF-8 Plain Text
  64. Duration : 53 min 58 s
  65. Bit rate : 62 b/s
  66. Count of elements : 851
  67. Stream size : 24.9 KiB (0%)
  68. Title : SDH
  69. Language : English
  70. Default : No
  71. Forced : No

  72. Menu
  73. 00:00:00.000 : en:Chapter 1
  74. 00:12:24.480 : en:Chapter 2
  75. 00:20:09.480 : en:Chapter 3
  76. 00:29:53.520 : en:Chapter 4
  77. 00:39:07.840 : en:Chapter 5
  78. 00:50:38.760 : en:Chapter 6
复制代码

黄金罗盘 / 黑质三部曲 / 黑暗三部曲 / 黑暗元素(台)/黑暗物质三部曲 第一季4k His.Dark.Materials.2019.S01.2160p.WEBRip.x265.10bit.HDR.HLG.DTS-HD.MA.5.1-4k美剧下载

黑暗物质三部曲 第一季4k His.Dark.Materials.2019.S01.2160p.WEBRip.x265.10bit.HDR.HLG.DTS-HD.MA.5.1【61.53 GB】
[Hao4k]黑暗物质三部曲 第一季4k His.Dark.Materials.2019.S01.2160p.WEBRip.x265.10b.torrent
(155.18 KB)
回复

使用道具 举报

发烧友评论8

倒序浏览
iwaitu 发表于 昨天 19:15 | 显示全部楼层
字幕难找呀
回复 支持 反对

使用道具 举报

阿伟影视 发表于 7 天前 | 显示全部楼层
不错哦 感谢分享
回复 支持 反对

使用道具 举报

hk1560777 发表于 2020-11-18 12:00:03 | 显示全部楼层
有适合得字幕吗,网上很多但部匹配
回复 支持 反对

使用道具 举报

HWyt 发表于 2020-11-14 22:28:12 | 显示全部楼层
谢谢分享,不知道我有没有速度
回复 支持 反对

使用道具 举报

dindong 发表于 2020-11-12 17:00:35 | 显示全部楼层
没有 速率,你们也这样吗?
回复 支持 反对

使用道具 举报

ray4s 发表于 2020-11-11 09:31:14 | 显示全部楼层
顶一下 先下为敬
回复 支持 反对

使用道具 举报

kelann 发表于 2020-11-10 18:05:38 | 显示全部楼层
不错的连续剧,可以看。
回复 支持 反对

使用道具 举报

您需要登录后才可以回帖 登录 | 立即注册

本版积分规则

在线客服

在线客服

服务时间 9:00—18:00

返回顶部

关注微信公众号第一时间推送精彩

官方微信

手机访问

Hao4K影音

专注4k家庭影音,提供家庭影音社区,家庭影音器材库,影音问答平台,影音商城,服务千万家庭影音用户。

本站内容部分由用户自主分享和转载自互联网,转载目的在于传递更多信息,并不代表本网赞同其观点和对其真实性负责。

如有侵权、违反国家法律政策行为,请联系我们,我们会第一时间及时清除和处理!

举报反馈邮箱:admin@hao4k.cn

Copyright  2019-2020  Hao4K影音粤公网安备 44030302001429号    ( 粤ICP备18155646号-1 )|网站地图