专注4K家庭影音, 服务千万家庭影音发烧友!

[待验证4K资源] 新变种人4k The.New.Mutants.2020.2160p-4k电影下载

碧池 发表于 2020-11-12 16:00:48 | 显示全部楼层
电影频道
电影封面:
片  名: 新变种人4k
电影分类: 动作 科幻 恐怖 
国  家: 美国 
年  代: 2020年
分 辨 率: 4K(3840x2160)
电影格式: MKV|REMUX 
画质标准: HDR 
音质编码: Dolby Digital Plus Audio 
电影声道: 5.1声道 
帧数/FPS: 23.976 FPS
电影语言: 英文原版 
资源大小: 3.8 GB
导  演: 约什·布恩
豆瓣评分: 4.5 分
中文字幕: -
剧情简介: 当五位拥有特殊能力的青少年被关入秘密机构,有一股超自然恶势力正蠢蠢欲动,他们必须面对过去的罪恶,但内心的恐惧即将成真。神秘的背后似乎有巨大的阴谋正在成形,他们是否能勇敢对抗自身的力量,逃脱这一切枷锁……
新异变人(港) / 变种人(台) / X-Men: The New Mutants / 新变档人(豆友译名)/新变种人4k The.New.Mutants.2020.2160p.UHD.HDR.BluRay.x265.10bit.DD5.1-4k
电影信息

  1. Video
  2. ID                          : 1
  3. Format                      : HEVC
  4. Format/Info                 : High Efficiency Video Coding
  5. HDR format                  : SMPTE ST 2086, HDR10 compatible
  6. Codec ID                    : V_MPEGH/ISO/HEVC
  7. Duration                    : 1 h 34 min
  8. Bit rate                    : 5 010 kb/s
  9. Width                       : 3 840 pixels
  10. Height                      : 2 160 pixels
  11. Display aspect ratio        : 16:9
  12. Frame rate mode             : Constant
  13. Frame rate                  : 23.976 (24000/1001) FPS
  14. Color space                 : YUV
  15. Chroma subsampling          : 4:2:0 (Type 2)
  16. Bit depth                   : 10 bits
  17. Bits/(Pixel*Frame)          : 0.025
  18. Stream size                 : 3.29 GiB (88%)
  19. Title                       : [WMAN-LorD]
  20. Language                    : English
  21. Default                     : Yes
  22. Forced                      : No
  23. Color range                 : Limited
  24. Color primaries             : BT.2020
  25. Transfer characteristics    : PQ
  26. Matrix coefficients         : BT.2020 non-constant
  27. Mastering display color pri : Display P3
  28. Mastering display luminance : min: 0.0050 cd/m2, max: 1000 cd/m2

  29. Audio
  30. ID                          : 2
  31. Format                      : E-AC-3
  32. Format/Info                 : Enhanced AC-3
  33. Commercial name             : Dolby Digital Plus
  34. Codec ID                    : A_EAC3
  35. Duration                    : 1 h 34 min
  36. Bit rate mode               : Constant
  37. Bit rate                    : 640 kb/s
  38. Channel(s)                  : 6 channels
  39. Channel layout              : L R C LFE Ls Rs
  40. Sampling rate               : 48.0 kHz
  41. Frame rate                  : 31.250 FPS (1536 SPF)
  42. Compression mode            : Lossy
  43. Stream size                 : 431 MiB (11%)
  44. Title                       : Dolby Digital Plus / 5.1 / 48 kHz / 640 kbps
  45. Language                    : English
  46. Service kind                : Complete Main
  47. Default                     : Yes
  48. Forced                      : No

  49. Text #1
  50. ID                          : 3
  51. Format                      : UTF-8
  52. Codec ID                    : S_TEXT/UTF8
  53. Codec ID/Info               : UTF-8 Plain Text
  54. Duration                    : 1 h 26 min
  55. Bit rate                    : 38 b/s
  56. Count of elements           : 985
  57. Stream size                 : 24.6 KiB (0%)
  58. Language                    : Portuguese
  59. Default                     : Yes
  60. Forced                      : No

  61. Text #2
  62. ID                          : 4
  63. Format                      : PGS
  64. Muxing mode                 : zlib
  65. Codec ID                    : S_HDMV/PGS
  66. Codec ID/Info               : Picture based subtitle format used on BDs/HD-DVDs
  67. Duration                    : 1 h 26 min
  68. Bit rate                    : 34.6 kb/s
  69. Count of elements           : 2686
  70. Stream size                 : 21.3 MiB (1%)
  71. Title                       : English (SDH)
  72. Language                    : English
  73. Default                     : No
  74. Forced                      : No

  75. Text #3
  76. ID                          : 5
  77. Format                      : PGS
  78. Muxing mode                 : zlib
  79. Codec ID                    : S_HDMV/PGS
  80. Codec ID/Info               : Picture based subtitle format used on BDs/HD-DVDs
  81. Duration                    : 1 h 33 min
  82. Bit rate                    : 25.2 kb/s
  83. Count of elements           : 2020
  84. Stream size                 : 16.8 MiB (0%)
  85. Title                       : French (Canadian)
  86. Language                    : French
  87. Default                     : No
  88. Forced                      : No

  89. Text #4
  90. ID                          : 6
  91. Format                      : PGS
  92. Muxing mode                 : zlib
  93. Codec ID                    : S_HDMV/PGS
  94. Codec ID/Info               : Picture based subtitle format used on BDs/HD-DVDs
  95. Duration                    : 1 h 33 min
  96. Bit rate                    : 21.1 kb/s
  97. Count of elements           : 1846
  98. Stream size                 : 14.1 MiB (0%)
  99. Title                       : French (Parisian)
  100. Language                    : French
  101. Default                     : No
  102. Forced                      : No

  103. Text #5
  104. ID                          : 7
  105. Format                      : PGS
  106. Muxing mode                 : zlib
  107. Codec ID                    : S_HDMV/PGS
  108. Codec ID/Info               : Picture based subtitle format used on BDs/HD-DVDs
  109. Duration                    : 1 h 33 min
  110. Bit rate                    : 23.4 kb/s
  111. Count of elements           : 1918
  112. Stream size                 : 15.6 MiB (0%)
  113. Title                       : German
  114. Language                    : German
  115. Default                     : No
  116. Forced                      : No

  117. Text #6
  118. ID                          : 8
  119. Format                      : PGS
  120. Muxing mode                 : zlib
  121. Codec ID                    : S_HDMV/PGS
  122. Codec ID/Info               : Picture based subtitle format used on BDs/HD-DVDs
  123. Duration                    : 1 h 26 min
  124. Bit rate                    : 26.5 kb/s
  125. Count of elements           : 1980
  126. Stream size                 : 16.3 MiB (0%)
  127. Title                       : Spanish (Latin American)
  128. Language                    : Spanish
  129. Default                     : No
  130. Forced                      : No

  131. Text #7
  132. ID                          : 9
  133. Format                      : PGS
  134. Muxing mode                 : zlib
  135. Codec ID                    : S_HDMV/PGS
  136. Codec ID/Info               : Picture based subtitle format used on BDs/HD-DVDs
  137. Duration                    : 1 h 33 min
  138. Bit rate                    : 65.0 kb/s
  139. Count of elements           : 3542
  140. Stream size                 : 43.5 MiB (1%)
  141. Title                       : Spanish (Commentary)
  142. Language                    : Spanish
  143. Default                     : No
  144. Forced                      : No
复制代码

新异变人(港) / 变种人(台) / X-Men: The New Mutants / 新变档人(豆友译名)/新变种人4k The.New.Mutants.2020.2160p.UHD.HDR.BluRay.x265.10bit.DD5.1-4k
电影下载


新变种人4k The.New.Mutants.2020.2160p.UHD.HDR.BluRay.x265.10bit.DD5.1【3.8 GB】
新变种人4k.txt
(88 Bytes)
回复

使用道具 举报

发烧友评论24

倒序浏览
kratosxue 发表于 2020-11-13 17:34:47 | 显示全部楼层

没速度 大家是这样吗
回复 支持 反对

使用道具 举报

tttlang123456 发表于 2020-11-13 14:22:49 | 显示全部楼层
我也不知道现在能不能下载下来,刚刚注册下,谢谢楼主分享
回复 支持 反对

使用道具 举报

游荡的爱 发表于 昨天 17:54 | 显示全部楼层
刚刚注册,试一下啊
回复 支持 反对

使用道具 举报

jackqj 发表于 前天 23:04 | 显示全部楼层
感谢分享,先下一个小点的看看呢。
回复 支持 反对

使用道具 举报

lywzj238 发表于 4 天前 | 显示全部楼层
谢谢分享好电影
回复 支持 反对

使用道具 举报

nyhjw2008 发表于 4 天前 | 显示全部楼层
有点小啊,才3.8G,是4K电影吗?
回复 支持 反对

使用道具 举报

wzqihui 发表于 4 天前 | 显示全部楼层
字幕哪里下载知道嘛?
回复 支持 反对

使用道具 举报

信徒d900 发表于 4 天前 | 显示全部楼层
谢谢分享 不知道好不好看
回复 支持 反对

使用道具 举报

兴喜若狂 发表于 2020-11-16 14:35:18 | 显示全部楼层
楼主 去哪里下载字幕
回复 支持 反对

使用道具 举报

wzd 发表于 2020-11-15 14:47:06 | 显示全部楼层
回复 支持 反对

使用道具 举报

bino118 发表于 2020-11-15 14:43:25 | 显示全部楼层
感谢楼主分享
回复 支持 反对

使用道具 举报

风雨无阻-77 发表于 2020-11-15 13:18:59 | 显示全部楼层
不太喜欢这种类型的电影,还是感谢分享。
回复 支持 反对

使用道具 举报

luxingyao 发表于 2020-11-15 08:50:22 | 显示全部楼层

谢谢分享好电影
回复 支持 反对

使用道具 举报

lqh228 发表于 2020-11-14 22:31:30 | 显示全部楼层
好片谢谢分享
回复 支持 反对

使用道具 举报

atomchrist 发表于 2020-11-14 20:01:16 | 显示全部楼层
好电影,值得下载,速度如何
回复 支持 反对

使用道具 举报

春在树上 发表于 2020-11-14 10:18:15 | 显示全部楼层
感谢分享,留待众人欣赏
回复 支持 反对

使用道具 举报

月光麦田 发表于 2020-11-13 20:12:00 | 显示全部楼层
期待蓝光原盘资源
回复 支持 反对

使用道具 举报

govern 发表于 2020-11-13 18:42:53 | 显示全部楼层
谢谢分享呢
回复 支持 反对

使用道具 举报

您需要登录后才可以回帖 登录 | 立即注册

本版积分规则


0关注

27粉丝

81帖子

热门图文主题
热门主题
社区广告

在线客服

在线客服

服务时间 9:00—18:00

返回顶部

关注微信公众号第一时间推送精彩

官方微信

手机访问

Hao4K影音

专注4k家庭影音,提供家庭影音社区,家庭影音器材库,影音问答平台,影音商城,服务千万家庭影音用户。

本站内容部分由用户自主分享和转载自互联网,转载目的在于传递更多信息,并不代表本网赞同其观点和对其真实性负责。

如有侵权、违反国家法律政策行为,请联系我们,我们会第一时间及时清除和处理!

举报反馈邮箱:admin@hao4k.cn

Copyright  2019-2020  Hao4K影音粤公网安备 44030302001429号    ( 粤ICP备18155646号-1 )|网站地图