专注4K家庭影音, 服务千万家庭影音发烧友!

[美剧] 杀手一班4k Deadly.Class.S01.2160p.WEBRip.DDP5.1.x265-4k美剧下载

大红色 发表于 2020-11-12 18:52:52 | 显示全部楼层
电视剧频道
电视剧封面:
电视剧名: 杀手一班4k
年  代: 2019  
国  家: 美国
类  别: 动作 犯罪 剧情 
语  言: 英语
字  幕: 英文原版
上映日期: 2019-01-16
文件格式: mkv    
视频效果: 4K(3840x2160)    
资源大小: 32.27 GB
片  长: 60 分钟
导  演: 亚当·肯恩
剧情简介: 以Image漫画《杀手一班 Deadly Class》改编的同名Syfy剧定于19年1月16日首播,该剧由Rick Remender﹑Joe及Anthony Russo负责。
  由Rick Remender及Miles Fel dsott所著的《杀手一班 Deadly C lass》设定在80年代末,主角Marcus Lopez来到一间特殊的高中,而这学校最特别之处是这里学习的是暗杀类的课程,同学们也是一群犯罪家族的后裔。不过跟一般学校相同的是,这处一样有欺凌事件,主角就是受害者。
  Benedict Wong饰演Lin大师,是Deadly Arts高中的校长,致命﹑使人恐惧的他犹如变色龙般变幻莫测,学生们都渴求获得他的赞赏。Benjamin Wadsworth饰演主角Marcus,愤世嫉俗的他如果在其他地方可能会变成艺术家﹑诗人,但此刻尚有道德的他,得努力在不道德的旧金山活下去。
  Lana Condor饰演Saya,神秘的她被日本黑道放逐,因此从日本远道而来,希望在Deadly Arts中能挽回自己;Saya为了成为毕业生代表,绝对不会让别人阻碍到她。Maria Gabriela de Faria饰演Maria,翻脸如翻书的她会前一刻表现得迷人﹑娇柔,但突然就会变得狂暴﹑野性。这种不稳定性在Deadly Arts反倒被视为强大的存在。
  Luke Tennie饰演Willie,表现上他是个硬派的帮派人,不过骨子里其实是个诚实﹑有思想的人,比起见血的工作,他比较想混在漫画堆及音乐里。驱使Willie入读的原因是他那洛杉矶黑帮大姐母亲,她因为给予儿子无穷的压力,使Willie十分讨厌这学校。Liam James饰演Billy,滑板庞克的他是黑警的儿子,精力充沛的Billy会用吐糟﹑幽默的态度来应对事情。Michel Duval饰演Chico,四肢发达的Chico是毒枭的儿子,其他人都知道绝不能惹他……除了他女友。
  其余角色包括Henry Rollins饰演的 Jürgen Denke﹑Taylor Hickson饰演的Petra﹑Siobhan Williams饰演的Brandy﹑Jack Gillett饰演的Viktor﹑Sean Depner饰演的Lex及Ryan Robbins饰演的Rory。
致命教室 / 暗杀教室 / 死亡一班 / 致命班级 / 致命一班 / 夺命一班/杀手一班4k Deadly.Class.S01.2160p.WEBRip.DDP5.1.x265-4k美剧信息
  1. Video
  2. ID : 1
  3. Format : HEVC
  4. Format/Info : High Efficiency Video Coding
  5. Format profile : Main@L5.1@High
  6. Codec ID : V_MPEGH/ISO/HEVC
  7. Duration : 53 min 21 s
  8. Bit rate : 9 728 kb/s
  9. Width : 3 840 pixels
  10. Height : 1 600 pixels
  11. Display aspect ratio : 2.40:1
  12. Frame rate mode : Constant
  13. Frame rate : 23.976 (24000/1001) FPS
  14. Color space : YUV
  15. Chroma subsampling : 4:2:0
  16. Bit depth : 8 bits
  17. Bits/(Pixel*Frame) : 0.066
  18. Stream size : 3.63 GiB (94%)
  19. Writing library : x265 3.4+26-g83e2d7fb0:[Windows][GCC 9.3.0][64 bit] 8bit+10bit+12bit
  20. Encoding settings : cpuid=1111039 / frame-threads=4 / numa-pools=28 / wpp / no-pmode / no-pme / no-psnr / no-ssim / log-level=2 / input-csp=1 / input-res=3840x1600 / interlace=0 / total-frames=0 / level-idc=51 / high-tier=1 / uhd-bd=0 / ref=4 / no-allow-non-conformance / no-repeat-headers / annexb / aud / hrd / info / hash=0 / no-temporal-layers / no-open-gop / min-keyint=23 / keyint=250 / gop-lookahead=0 / bframes=4 / b-adapt=2 / b-pyramid / bframe-bias=0 / rc-lookahead=20 / lookahead-slices=4 / scenecut=40 / hist-scenecut=0 / radl=0 / no-splice / no-intra-refresh / ctu=64 / min-cu-size=8 / rect / no-amp / max-tu-size=32 / tu-inter-depth=1 / tu-intra-depth=1 / limit-tu=0 / rdoq-level=0 / dynamic-rd=0.00 / no-ssim-rd / signhide / no-tskip / nr-intra=0 / nr-inter=0 / no-constrained-intra / no-strong-intra-smoothing / max-merge=3 / limit-refs=1 / no-limit-modes / me=1 / subme=2 / merange=57 / temporal-mvp / no-frame-dup / no-hme / weightp / no-weightb / no-analyze-src-pics / deblock=-3:-3 / no-sao / no-sao-non-deblock / rd=3 / selective-sao=0 / early-skip / rskip / no-fast-intra / no-tskip-fast / no-cu-lossless / b-intra / no-splitrd-skip / rdpenalty=0 / psy-rd=2.00 / psy-rdoq=0.00 / no-rd-refine / no-lossless / cbqpoffs=0 / crqpoffs=0 / rc=crf / crf=19.0 / qcomp=0.60 / qpstep=4 / stats-write=0 / stats-read=0 / vbv-maxrate=160000 / vbv-bufsize=160000 / vbv-init=0.9 / min-vbv-fullness=50.0 / max-vbv-fullness=80.0 / crf-max=0.0 / crf-min=0.0 / ipratio=1.40 / pbratio=1.30 / aq-mode=2 / aq-strength=1.00 / no-cutree / zone-count=0 / no-strict-cbr / qg-size=32 / no-rc-grain / qpmax=69 / qpmin=0 / no-const-vbv / sar=0 / overscan=0 / videoformat=5 / range=0 / colorprim=1 / transfer=1 / colormatrix=1 / chromaloc=0 / display-window=0 / cll=0,0 / min-luma=0 / max-luma=255 / log2-max-poc-lsb=8 / vui-timing-info / vui-hrd-info / slices=1 / no-opt-qp-pps / no-opt-ref-list-length-pps / no-multi-pass-opt-rps / scenecut-bias=0.05 / hist-threshold=0.03 / no-opt-cu-delta-qp / no-aq-motion / no-hdr10 / no-hdr10-opt / no-dhdr10-opt / no-idr-recovery-sei / analysis-reuse-level=0 / analysis-save-reuse-level=0 / analysis-load-reuse-level=0 / scale-factor=0 / refine-intra=0 / refine-inter=0 / refine-mv=1 / refine-ctu-distortion=0 / no-limit-sao / ctu-info=0 / no-lowpass-dct / refine-analysis-type=0 / copy-pic=1 / max-ausize-factor=1.0 / no-dynamic-refine / no-single-sei / no-hevc-aq / no-svt / no-field / qp-adaptation-range=1.00 / no-scenecut-aware-qpconformance-window-offsets / right=0 / bottom=0 / decoder-max-rate=0 / no-vbv-live-multi-pass
  21. Language : English
  22. Default : Yes
  23. Forced : No
  24. Color range : Limited
  25. Color primaries : BT.709
  26. Transfer characteristics : BT.709
  27. Matrix coefficients : BT.709

  28. Audio
  29. ID : 2
  30. Format : E-AC-3
  31. Format/Info : Enhanced AC-3
  32. Commercial name : Dolby Digital Plus
  33. Codec ID : A_EAC3
  34. Duration : 53 min 26 s
  35. Bit rate mode : Constant
  36. Bit rate : 640 kb/s
  37. Channel(s) : 6 channels
  38. Channel layout : L R C LFE Ls Rs
  39. Sampling rate : 48.0 kHz
  40. Frame rate : 31.250 FPS (1536 SPF)
  41. Compression mode : Lossy
  42. Delay relative to video : 22 ms
  43. Stream size : 245 MiB (6%)
  44. Title : Dolby Digital Plus 5.1
  45. Language : English
  46. Service kind : Complete Main
  47. Default : No
  48. Forced : No

  49. Text
  50. ID : 3
  51. Format : UTF-8
  52. Codec ID : S_TEXT/UTF8
  53. Codec ID/Info : UTF-8 Plain Text
  54. Duration : 53 min 12 s
  55. Bit rate : 61 b/s
  56. Count of elements : 724
  57. Stream size : 23.8 KiB (0%)
  58. Language : English
  59. Default : No
  60. Forced : No
复制代码

致命教室 / 暗杀教室 / 死亡一班 / 致命班级 / 致命一班 / 夺命一班/杀手一班4k Deadly.Class.S01.2160p.WEBRip.DDP5.1.x265-4k美剧下载

杀手一班4k Deadly.Class.S01.2160p.WEBRip.DDP5.1.x265【32.27 GB】
[Hao4k]杀手一班4k Deadly.Class.S01.2160p.WEBRip.DDP5.1.x265-iNSPiRiT[rartv].torrent
(81.98 KB)
回复

使用道具 举报

您需要登录后才可以回帖 登录 | 立即注册

本版积分规则

在线客服

在线客服

服务时间 9:00—18:00

返回顶部

关注微信公众号第一时间推送精彩

官方微信

手机访问

Hao4K影音

专注4k家庭影音,提供家庭影音社区,家庭影音器材库,影音问答平台,影音商城,服务千万家庭影音用户。

本站内容部分由用户自主分享和转载自互联网,转载目的在于传递更多信息,并不代表本网赞同其观点和对其真实性负责。

如有侵权、违反国家法律政策行为,请联系我们,我们会第一时间及时清除和处理!

举报反馈邮箱:admin@hao4k.cn

Copyright  2019-2020  Hao4K影音粤公网安备 44030302001429号    ( 粤ICP备18155646号-1 )|网站地图