专注4K家庭影音, 服务千万家庭影音发烧友!

[美剧] 心灵猎人 第二季4k Mindhunter.S02.2160p-4k美剧下载

大红色 发表于 2020-11-16 11:54:45 | 显示全部楼层
电视剧频道
电视剧封面:
电视剧名: 心灵猎人 第二季4k
年  代: 2019  
国  家: 美国
类  别: 犯罪 惊悚 剧情 
语  言: 英语
字  幕: 英文原版
上映日期: 2019-08-16
文件格式: mkv    
视频效果: 4K(3840x2160)    
资源大小: 55.73 GB
片  长: 60 分钟
导  演: 大卫·芬奇 / 卡尔·弗兰克林 / 安德鲁·多米尼克
剧情简介: 美国联邦调查局特工霍顿·福特和比尔·坦奇继续探究人们是出于什么心理做出令人难以料想的事情。在心理学家温蒂·卡尔的帮助下,他们开创性地将行为分析运用到追捕臭名昭著的连环杀手中。
  《心灵猎人》第二季取材自真实事件,并于 8 月 16 日回归。全新一季由乔纳森·格罗夫、霍特·麦克卡兰尼、安娜·托芙、乔·图特尔、阿尔伯特·琼斯、斯泰茜·罗卡、迈克尔·瑟沃瑞斯、劳伦·格莱齐尔和西拉·麦克莱恩主演。
  本剧集由大卫·芬奇(《消失的爱人》《十二宫》)、安德鲁·多米尼克(《温柔杀戮》《神枪手之死》)和卡尔·弗兰克林(《守望尘世》《纸牌屋》)执导。
  大卫·芬奇、乔舒亚·多南(《消失的爱人》《致命快感》)、查理兹·塞隆(《妹子老板》《血仇》)和切安·查芬(《消失的爱人》《搏击俱乐部》)以及考特尼·迈尔斯和贝丝·科诺担任监制。
破案神探(港/台) / 心理神探 / 猎心者/心灵猎人 第二季4k Mindhunter.S02.2160p.NF.WEB-DL.x265.10bit.HDR.DDP5.1-4k美剧信息
  1. Video
  2. ID : 1
  3. Format : HEVC
  4. Format/Info : High Efficiency Video Coding
  5. Format profile : Main 10@L5@Main
  6. HDR format : SMPTE ST 2086, HDR10 compatible
  7. Codec ID : V_MPEGH/ISO/HEVC
  8. Duration : 1 h 13 min
  9. Bit rate : 15.1 Mb/s
  10. Width : 3 840 pixels
  11. Height : 2 160 pixels
  12. Display aspect ratio : 16:9
  13. Frame rate mode : Constant
  14. Frame rate : 23.976 (24000/1001) FPS
  15. Color space : YUV
  16. Chroma subsampling : 4:2:0 (Type 2)
  17. Bit depth : 10 bits
  18. Bits/(Pixel*Frame) : 0.076
  19. Stream size : 7.74 GiB (96%)
  20. Default : Yes
  21. Forced : No
  22. Color range : Limited
  23. Color primaries : BT.2020
  24. Transfer characteristics : PQ
  25. Matrix coefficients : BT.2020 non-constant
  26. Mastering display color primaries : Display P3
  27. Mastering display luminance : min: 0.0001 cd/m2, max: 1000 cd/m2
  28. Maximum Content Light Level : 2627 cd/m2
  29. Maximum Frame-Average Light Level : 97 cd/m2

  30. Audio
  31. ID : 2
  32. Format : E-AC-3
  33. Format/Info : Enhanced AC-3
  34. Commercial name : Dolby Digital Plus
  35. Codec ID : A_EAC3
  36. Duration : 1 h 13 min
  37. Bit rate mode : Constant
  38. Bit rate : 640 kb/s
  39. Channel(s) : 6 channels
  40. Channel layout : L R C LFE Ls Rs
  41. Sampling rate : 48.0 kHz
  42. Frame rate : 31.250 FPS (1536 SPF)
  43. Compression mode : Lossy
  44. Stream size : 339 MiB (4%)
  45. Language : English
  46. Service kind : Complete Main
  47. Default : Yes
  48. Forced : No

  49. Text #1
  50. ID : 3
  51. Format : UTF-8
  52. Codec ID : S_TEXT/UTF8
  53. Codec ID/Info : UTF-8 Plain Text
  54. Duration : 1 h 12 min
  55. Bit rate : 94 b/s
  56. Count of elements : 1318
  57. Stream size : 50.4 KiB (0%)
  58. Title : SDH
  59. Language : English
  60. Default : No
  61. Forced : No

  62. Text #2
  63. ID : 4
  64. Format : UTF-8
  65. Codec ID : S_TEXT/UTF8
  66. Codec ID/Info : UTF-8 Plain Text
  67. Duration : 1 h 12 min
  68. Bit rate : 148 b/s
  69. Count of elements : 1124
  70. Stream size : 79.4 KiB (0%)
  71. Language : Arabic
  72. Default : No
  73. Forced : No

  74. Text #3
  75. ID : 5
  76. Format : UTF-8
  77. Codec ID : S_TEXT/UTF8
  78. Codec ID/Info : UTF-8 Plain Text
  79. Duration : 1 h 12 min
  80. Bit rate : 70 b/s
  81. Count of elements : 1207
  82. Stream size : 37.5 KiB (0%)
  83. Language : Czech
  84. Default : No
  85. Forced : No

  86. Text #4
  87. ID : 6
  88. Format : UTF-8
  89. Codec ID : S_TEXT/UTF8
  90. Codec ID/Info : UTF-8 Plain Text
  91. Duration : 1 h 12 min
  92. Bit rate : 67 b/s
  93. Count of elements : 913
  94. Stream size : 35.6 KiB (0%)
  95. Language : Danish
  96. Default : No
  97. Forced : No

  98. Text #5
  99. ID : 7
  100. Format : UTF-8
  101. Codec ID : S_TEXT/UTF8
  102. Codec ID/Info : UTF-8 Plain Text
  103. Duration : 1 h 12 min
  104. Bit rate : 76 b/s
  105. Count of elements : 1017
  106. Stream size : 40.6 KiB (0%)
  107. Language : German
  108. Default : No
  109. Forced : No

  110. Text #6
  111. ID : 8
  112. Format : UTF-8
  113. Codec ID : S_TEXT/UTF8
  114. Codec ID/Info : UTF-8 Plain Text
  115. Duration : 1 h 12 min
  116. Bit rate : 131 b/s
  117. Count of elements : 1130
  118. Stream size : 69.9 KiB (0%)
  119. Language : Greek
  120. Default : No
  121. Forced : No

  122. Text #7
  123. ID : 9
  124. Format : UTF-8
  125. Codec ID : S_TEXT/UTF8
  126. Codec ID/Info : UTF-8 Plain Text
  127. Duration : 1 h 12 min
  128. Bit rate : 65 b/s
  129. Count of elements : 1145
  130. Stream size : 35.0 KiB (0%)
  131. Language : Spanish
  132. Default : No
  133. Forced : No

  134. Text #8
  135. ID : 10
  136. Format : UTF-8
  137. Codec ID : S_TEXT/UTF8
  138. Codec ID/Info : UTF-8 Plain Text
  139. Duration : 1 h 12 min
  140. Bit rate : 70 b/s
  141. Count of elements : 1099
  142. Stream size : 37.6 KiB (0%)
  143. Language : Spanish
  144. Default : No
  145. Forced : No

  146. Text #9
  147. ID : 11
  148. Format : UTF-8
  149. Codec ID : S_TEXT/UTF8
  150. Codec ID/Info : UTF-8 Plain Text
  151. Duration : 1 h 12 min
  152. Bit rate : 69 b/s
  153. Count of elements : 931
  154. Stream size : 36.7 KiB (0%)
  155. Language : Finnish
  156. Default : No
  157. Forced : No

  158. Text #10
  159. ID : 12
  160. Format : UTF-8
  161. Codec ID : S_TEXT/UTF8
  162. Codec ID/Info : UTF-8 Plain Text
  163. Duration : 1 h 12 min
  164. Bit rate : 80 b/s
  165. Count of elements : 1124
  166. Stream size : 42.5 KiB (0%)
  167. Language : French
  168. Default : No
  169. Forced : No

  170. Text #11
  171. ID : 13
  172. Format : UTF-8
  173. Codec ID : S_TEXT/UTF8
  174. Codec ID/Info : UTF-8 Plain Text
  175. Duration : 1 h 12 min
  176. Bit rate : 126 b/s
  177. Count of elements : 1075
  178. Stream size : 66.8 KiB (0%)
  179. Language : Hebrew
  180. Default : No
  181. Forced : No

  182. Text #12
  183. ID : 14
  184. Format : UTF-8
  185. Codec ID : S_TEXT/UTF8
  186. Codec ID/Info : UTF-8 Plain Text
  187. Duration : 1 h 12 min
  188. Bit rate : 64 b/s
  189. Count of elements : 1009
  190. Stream size : 34.1 KiB (0%)
  191. Language : Croatian
  192. Default : No
  193. Forced : No

  194. Text #13
  195. ID : 15
  196. Format : UTF-8
  197. Codec ID : S_TEXT/UTF8
  198. Codec ID/Info : UTF-8 Plain Text
  199. Duration : 1 h 12 min
  200. Bit rate : 75 b/s
  201. Count of elements : 1020
  202. Stream size : 39.8 KiB (0%)
  203. Language : Hungarian
  204. Default : No
  205. Forced : No

  206. Text #14
  207. ID : 16
  208. Format : UTF-8
  209. Codec ID : S_TEXT/UTF8
  210. Codec ID/Info : UTF-8 Plain Text
  211. Duration : 1 h 12 min
  212. Bit rate : 74 b/s
  213. Count of elements : 1131
  214. Stream size : 39.4 KiB (0%)
  215. Language : Indonesian
  216. Default : No
  217. Forced : No

  218. Text #15
  219. ID : 17
  220. Format : UTF-8
  221. Codec ID : S_TEXT/UTF8
  222. Codec ID/Info : UTF-8 Plain Text
  223. Duration : 1 h 12 min
  224. Bit rate : 69 b/s
  225. Count of elements : 1105
  226. Stream size : 37.0 KiB (0%)
  227. Language : Italian
  228. Default : No
  229. Forced : No

  230. Text #16
  231. ID : 18
  232. Format : UTF-8
  233. Codec ID : S_TEXT/UTF8
  234. Codec ID/Info : UTF-8 Plain Text
  235. Duration : 1 h 12 min
  236. Bit rate : 72 b/s
  237. Count of elements : 1182
  238. Stream size : 38.3 KiB (0%)
  239. Language : Japanese
  240. Default : No
  241. Forced : No

  242. Text #17
  243. ID : 19
  244. Format : UTF-8
  245. Codec ID : S_TEXT/UTF8
  246. Codec ID/Info : UTF-8 Plain Text
  247. Duration : 1 h 12 min
  248. Bit rate : 92 b/s
  249. Count of elements : 1159
  250. Stream size : 49.6 KiB (0%)
  251. Language : Korean
  252. Default : No
  253. Forced : No

  254. Text #18
  255. ID : 20
  256. Format : UTF-8
  257. Codec ID : S_TEXT/UTF8
  258. Codec ID/Info : UTF-8 Plain Text
  259. Duration : 1 h 12 min
  260. Bit rate : 61 b/s
  261. Count of elements : 1086
  262. Stream size : 32.4 KiB (0%)
  263. Language : Norwegian Bokmal
  264. Default : No
  265. Forced : No

  266. Text #19
  267. ID : 21
  268. Format : UTF-8
  269. Codec ID : S_TEXT/UTF8
  270. Codec ID/Info : UTF-8 Plain Text
  271. Duration : 1 h 12 min
  272. Bit rate : 62 b/s
  273. Count of elements : 1028
  274. Stream size : 33.2 KiB (0%)
  275. Language : Dutch
  276. Default : No
  277. Forced : No

  278. Text #20
  279. ID : 22
  280. Format : UTF-8
  281. Codec ID : S_TEXT/UTF8
  282. Codec ID/Info : UTF-8 Plain Text
  283. Duration : 1 h 12 min
  284. Bit rate : 70 b/s
  285. Count of elements : 1124
  286. Stream size : 37.1 KiB (0%)
  287. Language : Polish
  288. Default : No
  289. Forced : No

  290. Text #21
  291. ID : 23
  292. Format : UTF-8
  293. Codec ID : S_TEXT/UTF8
  294. Codec ID/Info : UTF-8 Plain Text
  295. Duration : 1 h 12 min
  296. Bit rate : 72 b/s
  297. Count of elements : 1103
  298. Stream size : 38.2 KiB (0%)
  299. Title : Brasil
  300. Language : Portuguese
  301. Default : No
  302. Forced : No

  303. Text #22
  304. ID : 24
  305. Format : UTF-8
  306. Codec ID : S_TEXT/UTF8
  307. Codec ID/Info : UTF-8 Plain Text
  308. Duration : 1 h 12 min
  309. Bit rate : 73 b/s
  310. Count of elements : 1110
  311. Stream size : 39.0 KiB (0%)
  312. Language : Portuguese
  313. Default : No
  314. Forced : No

  315. Text #23
  316. ID : 25
  317. Format : UTF-8
  318. Codec ID : S_TEXT/UTF8
  319. Codec ID/Info : UTF-8 Plain Text
  320. Duration : 1 h 12 min
  321. Bit rate : 80 b/s
  322. Count of elements : 1046
  323. Stream size : 42.9 KiB (0%)
  324. Language : Romanian
  325. Default : No
  326. Forced : No

  327. Text #24
  328. ID : 26
  329. Format : UTF-8
  330. Codec ID : S_TEXT/UTF8
  331. Codec ID/Info : UTF-8 Plain Text
  332. Duration : 1 h 12 min
  333. Bit rate : 120 b/s
  334. Count of elements : 1074
  335. Stream size : 63.7 KiB (0%)
  336. Language : Russian
  337. Default : No
  338. Forced : No

  339. Text #25
  340. ID : 27
  341. Format : UTF-8
  342. Codec ID : S_TEXT/UTF8
  343. Codec ID/Info : UTF-8 Plain Text
  344. Duration : 1 h 12 min
  345. Bit rate : 70 b/s
  346. Count of elements : 900
  347. Stream size : 37.2 KiB (0%)
  348. Language : Swedish
  349. Default : No
  350. Forced : No

  351. Text #26
  352. ID : 28
  353. Format : UTF-8
  354. Codec ID : S_TEXT/UTF8
  355. Codec ID/Info : UTF-8 Plain Text
  356. Duration : 1 h 12 min
  357. Bit rate : 202 b/s
  358. Count of elements : 1151
  359. Stream size : 107 KiB (0%)
  360. Language : Thai
  361. Default : No
  362. Forced : No

  363. Text #27
  364. ID : 29
  365. Format : UTF-8
  366. Codec ID : S_TEXT/UTF8
  367. Codec ID/Info : UTF-8 Plain Text
  368. Duration : 1 h 12 min
  369. Bit rate : 81 b/s
  370. Count of elements : 1048
  371. Stream size : 43.6 KiB (0%)
  372. Language : Turkish
  373. Default : No
  374. Forced : No

  375. Text #28
  376. ID : 30
  377. Format : UTF-8
  378. Codec ID : S_TEXT/UTF8
  379. Codec ID/Info : UTF-8 Plain Text
  380. Duration : 1 h 12 min
  381. Bit rate : 107 b/s
  382. Count of elements : 1141
  383. Stream size : 57.0 KiB (0%)
  384. Language : Vietnamese
  385. Default : No
  386. Forced : No

  387. Text #29
  388. ID : 31
  389. Format : UTF-8
  390. Codec ID : S_TEXT/UTF8
  391. Codec ID/Info : UTF-8 Plain Text
  392. Duration : 1 h 12 min
  393. Bit rate : 83 b/s
  394. Count of elements : 1149
  395. Stream size : 44.2 KiB (0%)
  396. Title : Simplified
  397. Language : Chinese
  398. Default : No
  399. Forced : No

  400. Text #30
  401. ID : 32
  402. Format : UTF-8
  403. Codec ID : S_TEXT/UTF8
  404. Codec ID/Info : UTF-8 Plain Text
  405. Duration : 1 h 12 min
  406. Bit rate : 73 b/s
  407. Count of elements : 1150
  408. Stream size : 39.1 KiB (0%)
  409. Title : Traditional
  410. Language : Chinese
  411. Default : No
  412. Forced : No
复制代码

破案神探(港/台) / 心理神探 / 猎心者/心灵猎人 第二季4k Mindhunter.S02.2160p.NF.WEB-DL.x265.10bit.HDR.DDP5.1-4k美剧下载

心灵猎人 第二季4k Mindhunter.S02.2160p.NF.WEB-DL.x265.10bit.HDR.DDP5.1【55.73 GB】
[Hao4k]心灵猎人 第二季4k Mindhunter.S02.2160p.NF.WEB-DL.x265.10bit.HDR.DDP5.1-Pl.torrent
(140.62 KB)
回复

使用道具 举报

发烧友评论3

倒序浏览
他山之石2046 发表于 2020-11-27 13:39:25 | 显示全部楼层
辛苦了,谢谢分享
回复 支持 反对

使用道具 举报

nbmsa 发表于 2020-11-16 12:00:21 | 显示全部楼层
辛苦了,谢谢分享
回复 支持 反对

使用道具 举报

您需要登录后才可以回帖 登录 | 立即注册

本版积分规则

在线客服

在线客服

服务时间 9:00—18:00

返回顶部

关注微信公众号第一时间推送精彩

官方微信

手机访问

Hao4K影音

专注4k家庭影音,提供家庭影音社区,家庭影音器材库,影音问答平台,影音商城,服务千万家庭影音用户。

本站内容部分由用户自主分享和转载自互联网,转载目的在于传递更多信息,并不代表本网赞同其观点和对其真实性负责。

如有侵权、违反国家法律政策行为,请联系我们,我们会第一时间及时清除和处理!

举报反馈邮箱:admin@hao4k.cn

Copyright  2019-2020  Hao4K影音粤公网安备 44030302001429号    ( 粤ICP备18155646号-1 )|网站地图