专注4K家庭影音, 服务千万家庭影音发烧友!

[美剧] 王冠 第四季4k The.Crown.S04.2160p.NF.WEB-DL.x265.10bit.HDR.DDP5.1-4k美剧下载

大红色 发表于 2020-11-17 10:55:01 | 显示全部楼层
电视剧频道
电视剧封面:
电视剧名: 王冠 第四季4k
年  代: 2020  
国  家: 美国
类  别: 剧情 历史 
语  言: 英语
字  幕: 英文原版
上映日期: 2020-11-15
文件格式: mkv    
视频效果: 4K(3840x2160)    
资源大小: 58.43 GB
片  长: 60 分钟
导  演: 本·卡隆
剧情简介: 本季涵盖1977年到1990**件,撒切尔夫人和戴安娜正式登场。
  1970年代来到尾声,英女王伊丽莎白 (Olivia Colman)一家煞费苦心为年届30依旧未婚的查理斯王子 (Josh O’Connor)寻找一位得体的新娘,以确保王位后继有人;英国上下则因为首位女首相玛格丽特·撒切尔 (Gillian Anderson)提倡极具争议的政策而动荡不安。随着撒切尔夫人带领英国参战福克兰战争,继而引起英联邦之间的纷争,她和英女王的关系势如水火。此时查理斯王子与青春正盛的戴安娜·斯宾塞女爵 (Emma Corrin)童话般的爱情正好为英国人民带来一丝安慰,使他们团结起来。然而,宫廷之内,整个王室却日趋决裂。
王冠 第四季4k The.Crown.S04.2160p.NF.WEB-DL.x265.10bit.HDR.DDP5.1-4k美剧信息
  1. Video
  2. ID : 1
  3. Format : HEVC
  4. Format/Info : High Efficiency Video Coding
  5. Format profile : Main 10@L5@Main
  6. HDR format : SMPTE ST 2086, HDR10 compatible
  7. Codec ID : V_MPEGH/ISO/HEVC
  8. Duration : 58 min 51 s
  9. Bit rate : 15.2 Mb/s
  10. Width : 3 840 pixels
  11. Height : 2 160 pixels
  12. Display aspect ratio : 16:9
  13. Frame rate mode : Constant
  14. Frame rate : 25.000 FPS
  15. Color space : YUV
  16. Chroma subsampling : 4:2:0 (Type 2)
  17. Bit depth : 10 bits
  18. Bits/(Pixel*Frame) : 0.073
  19. Stream size : 6.26 GiB (96%)
  20. Default : Yes
  21. Forced : No
  22. Color range : Limited
  23. Color primaries : BT.2020
  24. Transfer characteristics : PQ
  25. Matrix coefficients : BT.2020 non-constant
  26. Mastering display color primaries : Display P3
  27. Mastering display luminance : min: 0.0001 cd/m2, max: 1000 cd/m2
  28. Maximum Content Light Level : 1647 cd/m2
  29. Maximum Frame-Average Light Level : 150 cd/m2

  30. Audio
  31. ID : 2
  32. Format : E-AC-3
  33. Format/Info : Enhanced AC-3
  34. Commercial name : Dolby Digital Plus
  35. Codec ID : A_EAC3
  36. Duration : 1 h 0 min
  37. Bit rate mode : Constant
  38. Bit rate : 640 kb/s
  39. Channel(s) : 6 channels
  40. Channel layout : L R C LFE Ls Rs
  41. Sampling rate : 48.0 kHz
  42. Frame rate : 31.250 FPS (1536 SPF)
  43. Compression mode : Lossy
  44. Stream size : 277 MiB (4%)
  45. Language : English
  46. Service kind : Complete Main
  47. Default : Yes
  48. Forced : No

  49. Text #1
  50. ID : 3
  51. Format : UTF-8
  52. Codec ID : S_TEXT/UTF8
  53. Codec ID/Info : UTF-8 Plain Text
  54. Duration : 57 min 0 s
  55. Bit rate : 77 b/s
  56. Count of elements : 873
  57. Stream size : 32.3 KiB (0%)
  58. Title : [CC]
  59. Language : English
  60. Default : Yes
  61. Forced : No

  62. Text #2
  63. ID : 4
  64. Format : UTF-8
  65. Codec ID : S_TEXT/UTF8
  66. Codec ID/Info : UTF-8 Plain Text
  67. Duration : 57 min 14 s
  68. Bit rate : 119 b/s
  69. Count of elements : 836
  70. Stream size : 50.1 KiB (0%)
  71. Language : Arabic
  72. Default : No
  73. Forced : No

  74. Text #3
  75. ID : 5
  76. Format : UTF-8
  77. Codec ID : S_TEXT/UTF8
  78. Codec ID/Info : UTF-8 Plain Text
  79. Duration : 58 min 29 s
  80. Bit rate : 66 b/s
  81. Count of elements : 780
  82. Stream size : 28.6 KiB (0%)
  83. Language : Czech
  84. Default : No
  85. Forced : No

  86. Text #4
  87. ID : 6
  88. Format : UTF-8
  89. Codec ID : S_TEXT/UTF8
  90. Codec ID/Info : UTF-8 Plain Text
  91. Duration : 58 min 30 s
  92. Bit rate : 60 b/s
  93. Count of elements : 747
  94. Stream size : 26.1 KiB (0%)
  95. Language : Danish
  96. Default : No
  97. Forced : No

  98. Text #5
  99. ID : 7
  100. Format : UTF-8
  101. Codec ID : S_TEXT/UTF8
  102. Codec ID/Info : UTF-8 Plain Text
  103. Duration : 58 min 30 s
  104. Bit rate : 65 b/s
  105. Count of elements : 762
  106. Stream size : 28.2 KiB (0%)
  107. Language : German
  108. Default : No
  109. Forced : No

  110. Text #6
  111. ID : 8
  112. Format : UTF-8
  113. Codec ID : S_TEXT/UTF8
  114. Codec ID/Info : UTF-8 Plain Text
  115. Duration : 58 min 30 s
  116. Bit rate : 112 b/s
  117. Count of elements : 789
  118. Stream size : 48.3 KiB (0%)
  119. Language : Greek
  120. Default : No
  121. Forced : No

  122. Text #7
  123. ID : 9
  124. Format : UTF-8
  125. Codec ID : S_TEXT/UTF8
  126. Codec ID/Info : UTF-8 Plain Text
  127. Duration : 58 min 30 s
  128. Bit rate : 63 b/s
  129. Count of elements : 803
  130. Stream size : 27.2 KiB (0%)
  131. Language : Spanish
  132. Default : No
  133. Forced : No

  134. Text #8
  135. ID : 10
  136. Format : UTF-8
  137. Codec ID : S_TEXT/UTF8
  138. Codec ID/Info : UTF-8 Plain Text
  139. Duration : 58 min 30 s
  140. Bit rate : 62 b/s
  141. Count of elements : 779
  142. Stream size : 27.0 KiB (0%)
  143. Title : European
  144. Language : Spanish
  145. Default : No
  146. Forced : No

  147. Text #9
  148. ID : 11
  149. Format : UTF-8
  150. Codec ID : S_TEXT/UTF8
  151. Codec ID/Info : UTF-8 Plain Text
  152. Duration : 58 min 30 s
  153. Bit rate : 63 b/s
  154. Count of elements : 654
  155. Stream size : 27.2 KiB (0%)
  156. Language : Finnish
  157. Default : No
  158. Forced : No

  159. Text #10
  160. ID : 12
  161. Format : UTF-8
  162. Codec ID : S_TEXT/UTF8
  163. Codec ID/Info : UTF-8 Plain Text
  164. Duration : 58 min 30 s
  165. Bit rate : 66 b/s
  166. Count of elements : 787
  167. Stream size : 28.5 KiB (0%)
  168. Language : French
  169. Default : No
  170. Forced : No

  171. Text #11
  172. ID : 13
  173. Format : UTF-8
  174. Codec ID : S_TEXT/UTF8
  175. Codec ID/Info : UTF-8 Plain Text
  176. Duration : 58 min 30 s
  177. Bit rate : 101 b/s
  178. Count of elements : 801
  179. Stream size : 43.4 KiB (0%)
  180. Language : Hebrew
  181. Default : No
  182. Forced : No

  183. Text #12
  184. ID : 14
  185. Format : UTF-8
  186. Codec ID : S_TEXT/UTF8
  187. Codec ID/Info : UTF-8 Plain Text
  188. Duration : 58 min 30 s
  189. Bit rate : 59 b/s
  190. Count of elements : 785
  191. Stream size : 25.6 KiB (0%)
  192. Language : Croatian
  193. Default : No
  194. Forced : No

  195. Text #13
  196. ID : 15
  197. Format : UTF-8
  198. Codec ID : S_TEXT/UTF8
  199. Codec ID/Info : UTF-8 Plain Text
  200. Duration : 58 min 33 s
  201. Bit rate : 68 b/s
  202. Count of elements : 770
  203. Stream size : 29.3 KiB (0%)
  204. Language : Hungarian
  205. Default : No
  206. Forced : No

  207. Text #14
  208. ID : 16
  209. Format : UTF-8
  210. Codec ID : S_TEXT/UTF8
  211. Codec ID/Info : UTF-8 Plain Text
  212. Duration : 58 min 30 s
  213. Bit rate : 65 b/s
  214. Count of elements : 834
  215. Stream size : 27.9 KiB (0%)
  216. Language : Indonesian
  217. Default : No
  218. Forced : No

  219. Text #15
  220. ID : 17
  221. Format : UTF-8
  222. Codec ID : S_TEXT/UTF8
  223. Codec ID/Info : UTF-8 Plain Text
  224. Duration : 58 min 30 s
  225. Bit rate : 64 b/s
  226. Count of elements : 746
  227. Stream size : 27.8 KiB (0%)
  228. Language : Italian
  229. Default : No
  230. Forced : No

  231. Text #16
  232. ID : 18
  233. Format : UTF-8
  234. Codec ID : S_TEXT/UTF8
  235. Codec ID/Info : UTF-8 Plain Text
  236. Duration : 58 min 32 s
  237. Bit rate : 58 b/s
  238. Count of elements : 730
  239. Stream size : 25.0 KiB (0%)
  240. Language : Japanese
  241. Default : No
  242. Forced : No

  243. Text #17
  244. ID : 19
  245. Format : UTF-8
  246. Codec ID : S_TEXT/UTF8
  247. Codec ID/Info : UTF-8 Plain Text
  248. Duration : 58 min 30 s
  249. Bit rate : 81 b/s
  250. Count of elements : 845
  251. Stream size : 34.8 KiB (0%)
  252. Language : Korean
  253. Default : No
  254. Forced : No

  255. Text #18
  256. ID : 20
  257. Format : UTF-8
  258. Codec ID : S_TEXT/UTF8
  259. Codec ID/Info : UTF-8 Plain Text
  260. Duration : 58 min 30 s
  261. Bit rate : 62 b/s
  262. Count of elements : 795
  263. Stream size : 26.7 KiB (0%)
  264. Language : Malay
  265. Default : No
  266. Forced : No

  267. Text #19
  268. ID : 21
  269. Format : UTF-8
  270. Codec ID : S_TEXT/UTF8
  271. Codec ID/Info : UTF-8 Plain Text
  272. Duration : 58 min 30 s
  273. Bit rate : 69 b/s
  274. Count of elements : 654
  275. Stream size : 29.9 KiB (0%)
  276. Language : Norwegian Bokmal
  277. Default : No
  278. Forced : No

  279. Text #20
  280. ID : 22
  281. Format : UTF-8
  282. Codec ID : S_TEXT/UTF8
  283. Codec ID/Info : UTF-8 Plain Text
  284. Duration : 58 min 30 s
  285. Bit rate : 58 b/s
  286. Count of elements : 715
  287. Stream size : 25.1 KiB (0%)
  288. Language : Dutch
  289. Default : No
  290. Forced : No

  291. Text #21
  292. ID : 23
  293. Format : UTF-8
  294. Codec ID : S_TEXT/UTF8
  295. Codec ID/Info : UTF-8 Plain Text
  296. Duration : 58 min 30 s
  297. Bit rate : 62 b/s
  298. Count of elements : 816
  299. Stream size : 27.0 KiB (0%)
  300. Language : Polish
  301. Default : No
  302. Forced : No

  303. Text #22
  304. ID : 24
  305. Format : UTF-8
  306. Codec ID : S_TEXT/UTF8
  307. Codec ID/Info : UTF-8 Plain Text
  308. Duration : 58 min 30 s
  309. Bit rate : 66 b/s
  310. Count of elements : 773
  311. Stream size : 28.5 KiB (0%)
  312. Language : Portuguese
  313. Default : No
  314. Forced : No

  315. Text #23
  316. ID : 25
  317. Format : UTF-8
  318. Codec ID : S_TEXT/UTF8
  319. Codec ID/Info : UTF-8 Plain Text
  320. Duration : 58 min 30 s
  321. Bit rate : 66 b/s
  322. Count of elements : 814
  323. Stream size : 28.3 KiB (0%)
  324. Title : Brazilian
  325. Language : Portuguese
  326. Default : No
  327. Forced : No

  328. Text #24
  329. ID : 26
  330. Format : UTF-8
  331. Codec ID : S_TEXT/UTF8
  332. Codec ID/Info : UTF-8 Plain Text
  333. Duration : 58 min 30 s
  334. Bit rate : 69 b/s
  335. Count of elements : 738
  336. Stream size : 29.8 KiB (0%)
  337. Language : Romanian
  338. Default : No
  339. Forced : No

  340. Text #25
  341. ID : 27
  342. Format : UTF-8
  343. Codec ID : S_TEXT/UTF8
  344. Codec ID/Info : UTF-8 Plain Text
  345. Duration : 58 min 30 s
  346. Bit rate : 102 b/s
  347. Count of elements : 802
  348. Stream size : 43.9 KiB (0%)
  349. Language : Russian
  350. Default : No
  351. Forced : No

  352. Text #26
  353. ID : 28
  354. Format : UTF-8
  355. Codec ID : S_TEXT/UTF8
  356. Codec ID/Info : UTF-8 Plain Text
  357. Duration : 58 min 30 s
  358. Bit rate : 61 b/s
  359. Count of elements : 707
  360. Stream size : 26.4 KiB (0%)
  361. Language : Swedish
  362. Default : No
  363. Forced : No

  364. Text #27
  365. ID : 29
  366. Format : UTF-8
  367. Codec ID : S_TEXT/UTF8
  368. Codec ID/Info : UTF-8 Plain Text
  369. Duration : 58 min 30 s
  370. Bit rate : 185 b/s
  371. Count of elements : 834
  372. Stream size : 79.4 KiB (0%)
  373. Language : Thai
  374. Default : No
  375. Forced : No

  376. Text #28
  377. ID : 30
  378. Format : UTF-8
  379. Codec ID : S_TEXT/UTF8
  380. Codec ID/Info : UTF-8 Plain Text
  381. Duration : 58 min 30 s
  382. Bit rate : 66 b/s
  383. Count of elements : 714
  384. Stream size : 28.3 KiB (0%)
  385. Language : Turkish
  386. Default : No
  387. Forced : No

  388. Text #29
  389. ID : 31
  390. Format : UTF-8
  391. Codec ID : S_TEXT/UTF8
  392. Codec ID/Info : UTF-8 Plain Text
  393. Duration : 58 min 30 s
  394. Bit rate : 84 b/s
  395. Count of elements : 811
  396. Stream size : 36.4 KiB (0%)
  397. Language : Vietnamese
  398. Default : No
  399. Forced : No

  400. Text #30
  401. ID : 32
  402. Format : UTF-8
  403. Codec ID : S_TEXT/UTF8
  404. Codec ID/Info : UTF-8 Plain Text
  405. Duration : 58 min 30 s
  406. Bit rate : 68 b/s
  407. Count of elements : 829
  408. Stream size : 29.5 KiB (0%)
  409. Title : Simplified
  410. Language : Chinese
  411. Default : No
  412. Forced : No

  413. Text #31
  414. ID : 33
  415. Format : UTF-8
  416. Codec ID : S_TEXT/UTF8
  417. Codec ID/Info : UTF-8 Plain Text
  418. Duration : 58 min 30 s
  419. Bit rate : 63 b/s
  420. Count of elements : 822
  421. Stream size : 27.0 KiB (0%)
  422. Title : Traditional
  423. Language : Chinese
  424. Default : No
  425. Forced : No
复制代码

王冠 第四季4k The.Crown.S04.2160p.NF.WEB-DL.x265.10bit.HDR.DDP5.1-4k美剧下载
王冠 第四季4k The.Crown.S04.2160p.NF.WEB-DL.x265.10bit.HDR.DDP5.1【58.43 GB】
王冠 第四季 The.Crown.S04.2160p.NF.WEB-DL.x265.10bit.HDR.DDP5.1-ABBiE[rartv].torrent
(147.44 KB)
回复

使用道具 举报

发烧友评论7

倒序浏览
别打我的头 发表于 3 天前 Hao4K手机版 | 显示全部楼层
还能出几季?
回复 支持 反对

使用道具 举报

斑驳陆离 发表于 5 天前 | 显示全部楼层

好快 谢谢分享
回复 支持 反对

使用道具 举报

b32666 发表于 2020-11-19 23:44:42 | 显示全部楼层
感谢,感谢,请问有第三季的4K资源吗?
回复 支持 反对

使用道具 举报

nbmsa 发表于 2020-11-17 22:32:38 | 显示全部楼层
再求王冠 第三季,哪位好心人提供一下哦,谢谢
回复 支持 反对

使用道具 举报

aaaleo 发表于 2020-11-17 13:38:54 | 显示全部楼层
好快 谢谢分享
回复 支持 反对

使用道具 举报

您需要登录后才可以回帖 登录 | 立即注册

本版积分规则

在线客服

在线客服

服务时间 9:00—18:00

返回顶部

关注微信公众号第一时间推送精彩

官方微信

手机访问

Hao4K影音

专注4k家庭影音,提供家庭影音社区,家庭影音器材库,影音问答平台,影音商城,服务千万家庭影音用户。

本站内容部分由用户自主分享和转载自互联网,转载目的在于传递更多信息,并不代表本网赞同其观点和对其真实性负责。

如有侵权、违反国家法律政策行为,请联系我们,我们会第一时间及时清除和处理!

举报反馈邮箱:admin@hao4k.cn

Copyright  2019-2020  Hao4K影音粤公网安备 44030302001429号    ( 粤ICP备18155646号-1 )|网站地图