专注4K家庭影音, 服务千万家庭影音发烧友!

[待验证4K资源] 野战排4k Platoon 1986 2160p.4k电影下载

碧池 发表于 2020-11-17 17:11:12 | 显示全部楼层
电影频道
电影封面:
片  名: 野战排4k
电影分类: 动作 战争 剧情 
国  家: 美国 英国 
年  代: 80年代
分 辨 率: 4K(3840x2160)
电影格式: MKV|REMUX 
画质标准: HDR 
音质编码: Dolby Digital Audio 
电影声道: 5.1声道 
帧数/FPS: 23.976 FPS
电影语言: 英文原版 
资源大小: 3.3 GB
导  演: 奥利佛·斯通
豆瓣评分: 8.2 分
中文字幕: -
剧情简介: 泰勒(查理•辛 Charlie Sheen 饰)是越战期间的一名美国大学生,他前往越南前线去服兵役,被分到了一个步兵部队。部队里有两个人一直对他影响颇大——伊莱亚斯(威廉•达福 Willem Dafoe 饰)和巴恩斯(汤姆•贝伦杰 Tom Berenger 饰)。他们两人对战争的看法截然不同,前者不忍残杀无辜,而后者却杀人如麻,泰勒心里非常迷惑,到底谁对战争的看法才是正确。
  巴恩斯展开了一场残忍的屠杀,越南整条村落都流血成河。伊莱亚斯力劝好友不要如此残暴,却遭致二人关系的裂缝。巴恩斯更怀疑伊莱亚斯向上司打小报告,友谊变为妒恨。于是,在一次丛林战争中,他背着所有人,向伊莱亚斯扣下了扳机。
  泰勒却洞察了这一切,他心里终于有了答案。
杀戮战场(港) / 前进高棉(台)/野战排4k Platoon 1986 2160p HDR 5.1 x265 10bit.4k电影信息
  1. Video
  2. ID : 1
  3. Format : HEVC
  4. Format/Info : High Efficiency Video Coding
  5. Codec ID : V_MPEGH/ISO/HEVC
  6. Duration : 1 h 59 min
  7. Bit rate : 3 427 kb/s
  8. Width : 3 840 pixels
  9. Height : 2 072 pixels
  10. Display aspect ratio : 1.85:1
  11. Frame rate mode : Constant
  12. Frame rate : 23.976 (24000/1001) FPS
  13. Color space : YUV
  14. Chroma subsampling : 4:2:0
  15. Bit depth : 10 bits
  16. Bits/(Pixel*Frame) : 0.018
  17. Stream size : 2.87 GiB (86%)
  18. Writing library : x265 3.2.1+1-b5c86a64bbbe:[Windows][GCC 9.2.0][64 bit] 10bit
  19. Color range : Full
  20. Color primaries : BT.2020
  21. Transfer characteristics : PQ
  22. Matrix coefficients : BT.2020 non-constant

  23. Audio
  24. ID : 2
  25. Format : AC-3
  26. Format/Info : Audio Coding 3
  27. Commercial name : Dolby Digital
  28. Codec ID : A_AC3
  29. Duration : 1 h 59 min
  30. Bit rate mode : Constant
  31. Bit rate : 320 kb/s
  32. Channel(s) : 6 channels
  33. Channel layout : L R C LFE Ls Rs
  34. Sampling rate : 48.0 kHz
  35. Frame rate : 31.250 FPS (1536 SPF)
  36. Compression mode : Lossy
  37. Delay relative to video : 5 ms
  38. Stream size : 274 MiB (8%)
  39. Title : Surround
  40. Language : English

  41. Text
  42. Language : English
  43. Language : French
  44. Language : French
  45. Language : English
  46. Language : French
  47. Language : English
  48. Language : French
  49. Language : English
  50. Default : No
  51. Forced : No
复制代码

杀戮战场(港) / 前进高棉(台)/野战排4k Platoon 1986 2160p HDR 5.1 x265 10bit.4k电影下载
野战排4k.txt
(86 Bytes)
回复

使用道具 举报

发烧友评论14

倒序浏览
liufa518 发表于 前天 10:40 | 显示全部楼层
多谢分享精彩资源!
回复 支持 反对

使用道具 举报

堂堂乎张 发表于 3 天前 | 显示全部楼层
多谢分享,好片啊。
回复 支持 反对

使用道具 举报

tnt_chen 发表于 4 天前 | 显示全部楼层
太好了,来下载了,谢谢楼主
回复 支持 反对

使用道具 举报

szwifi 发表于 4 天前 | 显示全部楼层
多谢分享,好片啊。
回复 支持 反对

使用道具 举报

ykych 发表于 4 天前 | 显示全部楼层
经典电影  !!!
回复 支持 反对

使用道具 举报

lywzj238 发表于 6 天前 | 显示全部楼层
谢谢分享好电影
回复 支持 反对

使用道具 举报

tomcatf 发表于 7 天前 | 显示全部楼层
流码率才3M,就算是H265,这也太低了点吧?
回复 支持 反对

使用道具 举报

风舞清扬 发表于 7 天前 | 显示全部楼层
各位大佬,有没有适合此版的中文字幕?网上找来的字幕时间轴对不上啊!
回复 支持 反对

使用道具 举报

风舞清扬 发表于 2020-11-18 23:23:40 | 显示全部楼层
不错!可以排进十大战争片排行榜,谢谢!
回复 支持 反对

使用道具 举报

visa981 发表于 2020-11-18 22:45:07 | 显示全部楼层
DGFDHMFUJYH
回复 支持 反对

使用道具 举报

flaking 发表于 2020-11-18 19:50:32 | 显示全部楼层

不错  喜欢的电影 下了
回复 支持 反对

使用道具 举报

chungken 发表于 2020-11-18 16:54:22 | 显示全部楼层
多谢分享精彩资源
回复 支持 反对

使用道具 举报

clcly 发表于 2020-11-18 10:42:17 | 显示全部楼层
错  喜欢的电影 下了
回复 支持 反对

使用道具 举报

亮子道数码 发表于 2020-11-18 10:02:23 | 显示全部楼层
不错  喜欢的电影 下了
回复 支持 反对

使用道具 举报

您需要登录后才可以回帖 登录 | 立即注册

本版积分规则


0关注

30粉丝

83帖子

热门图文主题
热门主题
社区广告

在线客服

在线客服

服务时间 9:00—18:00

返回顶部

关注微信公众号第一时间推送精彩

官方微信

手机访问

Hao4K影音

专注4k家庭影音,提供家庭影音社区,家庭影音器材库,影音问答平台,影音商城,服务千万家庭影音用户。

本站内容部分由用户自主分享和转载自互联网,转载目的在于传递更多信息,并不代表本网赞同其观点和对其真实性负责。

如有侵权、违反国家法律政策行为,请联系我们,我们会第一时间及时清除和处理!

举报反馈邮箱:admin@hao4k.cn

Copyright  2019-2020  Hao4K影音粤公网安备 44030302001429号    ( 粤ICP备18155646号-1 )|网站地图