专注4K家庭影音, 服务千万家庭影音发烧友!

喜剧到永远4K.2017.2160p.HULU.WEBRip.x265.10bit.SDR.DDP5.1-4K纪录片下载

青衫烟雨 发表于 2020-11-18 17:10:36 | 显示全部楼层
电影频道
电影封面:
片  名: 喜剧到永远4K
电影分类: 纪录片 
国  家: 美国 
年  代: 2017年
分 辨 率: 4K(3840x2160)
电影格式: MKV|REMUX 
画质标准: SDR 
音质编码: Dolby Digital Plus Audio 其他AAC 
电影声道: 5.1声道 
帧数/FPS: 23.976 FPS
电影语言: 英文原版 
资源大小: 9.22 GB
导  演: osh Greenbaum
豆瓣评分: 7.7 分
中文字幕: -
剧情简介: Creators, cast and network executives recount the strange history of the Dana Carvey Show, the irreverent prime time sketch comedy show that aired for eight episodes on ABC, following its star\'s meteoric run on Saturday Night Live
喜剧到永远4K.Too.Funny.to.Fail.The.Life.and.Death.of.The.Dana.Carvey.Show.2017.2160p.HULU.WEBRip.x265.10bit.SDR.DDP5.1-4k电影信息
  1. Video
  2. ID : 1
  3. Format : HEVC
  4. Format/Info : High Efficiency Video Coding
  5. Format profile : Main 10@L5.1@Main
  6. Codec ID : V_MPEGH/ISO/HEVC
  7. Duration : 1 h 35 min
  8. Bit rate : 13.6 Mb/s
  9. Width : 3 840 pixels
  10. Height : 2 160 pixels
  11. Display aspect ratio : 16:9
  12. Frame rate mode : Constant
  13. Frame rate : 23.976 (24000/1001) FPS
  14. Color space : YUV
  15. Chroma subsampling : 4:2:0
  16. Bit depth : 10 bits
  17. Bits/(Pixel*Frame) : 0.068
  18. Stream size : 9.05 GiB (98%)
  19. Default : Yes
  20. Forced : No

  21. Audio
  22. ID : 2
  23. Format : E-AC-3
  24. Format/Info : Enhanced AC-3
  25. Commercial name : Dolby Digital Plus
  26. Codec ID : A_EAC3
  27. Duration : 1 h 35 min
  28. Bit rate mode : Constant
  29. Bit rate : 256 kb/s
  30. Channel(s) : 6 channels
  31. Channel layout : L R C LFE Ls Rs
  32. Sampling rate : 48.0 kHz
  33. Frame rate : 31.250 FPS (1536 SPF)
  34. Compression mode : Lossy
  35. Stream size : 174 MiB (2%)
  36. Language : English
  37. Service kind : Complete Main
  38. Default : Yes
  39. Forced : No

  40. Text #1
  41. ID : 3
  42. Format : UTF-8
  43. Codec ID : S_TEXT/UTF8
  44. Codec ID/Info : UTF-8 Plain Text
  45. Duration : 1 h 35 min
  46. Bit rate : 111 b/s
  47. Count of elements : 2548
  48. Stream size : 78.1 KiB (0%)
  49. Language : English
  50. Default : No
  51. Forced : No

  52. Text #2
  53. ID : 4
  54. Format : UTF-8
  55. Codec ID : S_TEXT/UTF8
  56. Codec ID/Info : UTF-8 Plain Text
  57. Duration : 1 h 35 min
  58. Bit rate : 112 b/s
  59. Count of elements : 2588
  60. Stream size : 78.7 KiB (0%)
  61. Language : Spanish
  62. Default : No
  63. Forced : No
复制代码
喜剧到永远4K.Too.Funny.to.Fail.The.Life.and.Death.of.The.Dana.Carvey.Show.2017.2160p.HULU.WEBRip.x265.10bit.SDR.DDP5.1-4K电影下载
喜剧到永远4K.2017.2160p.HULU.WEBRip.x265.10bit.SDR.DDP5.1【4K SDR  9.2 GB】
[Hao4K]喜剧到永远4K.Too.Funny.to.Fail.The.Life.and.Death.of.The.Dana.Carvey.Show.torrent
(46.72 KB, 售价: 2 K币)
回复

使用道具 举报

发烧友评论9

倒序浏览
一面湖水2057 发表于 3 天前 Hao4K手机版 | 显示全部楼层
非常感谢您的分享!
回复 支持 反对

使用道具 举报

cpshape 发表于 5 天前 | 显示全部楼层
哪里能找到字幕啊
回复 支持 反对

使用道具 举报

IonZinc 发表于 7 天前 | 显示全部楼层
楼主辛苦 多谢分享
回复 支持 反对

使用道具 举报

liangji2007 发表于 2020-11-20 15:49:21 | 显示全部楼层
感谢分享,感谢楼主
回复 支持 反对

使用道具 举报

vector1987 发表于 2020-11-19 22:01:28 | 显示全部楼层
下载必回贴,谢谢楼主分享
回复 支持 反对

使用道具 举报

小手吉他手 发表于 2020-11-19 08:55:33 | 显示全部楼层
楼主辛苦 多谢分享
回复 支持 反对

使用道具 举报

jimmyzhting 发表于 2020-11-19 08:17:34 | 显示全部楼层
分享快乐,感谢楼主
回复 支持 反对

使用道具 举报

highrpmclub 发表于 2020-11-19 07:53:22 | 显示全部楼层
评分还挺高的,谢谢分享
回复 支持 反对

使用道具 举报

您需要登录后才可以回帖 登录 | 立即注册

本版积分规则

在线客服

在线客服

服务时间 9:00—18:00

返回顶部

关注微信公众号第一时间推送精彩

官方微信

手机访问

Hao4K影音

专注4k家庭影音,提供家庭影音社区,家庭影音器材库,影音问答平台,影音商城,服务千万家庭影音用户。

本站内容部分由用户自主分享和转载自互联网,转载目的在于传递更多信息,并不代表本网赞同其观点和对其真实性负责。

如有侵权、违反国家法律政策行为,请联系我们,我们会第一时间及时清除和处理!

举报反馈邮箱:admin@hao4k.cn

Copyright  2019-2020  Hao4K影音粤公网安备 44030302001429号    ( 粤ICP备18155646号-1 )|网站地图