专注4K家庭影音, 服务千万家庭影音发烧友!

[美剧] 达奇与莉莉4k Dash.and.Lily.S01.2160p.NF.WEBRip.x265.10bit.HDR.DDP5.1-4k美剧

大红色 发表于 2020-11-18 22:20:59 | 显示全部楼层
电视剧频道
电视剧封面:
电视剧名: 达奇与莉莉4k
年  代: 2020  
国  家: 美国
类  别: 剧情 喜剧 爱情 
语  言: 英语
字  幕: 英文原版
上映日期: 2020-11-10
文件格式: mkv    
视频效果: 4K(3840x2160)    
资源大小: 15.55 GB
片  长: 30 分钟
导  演: Lauren Moon / Joe Tracz
剧情简介: Austin Abrams及Midori Francis加盟Netflix YA剧《达奇与莉莉 Dash & Lily》,这部改编自小说的8集假期浪漫喜剧由Joe Tracz执笔,讲述圣诞期间玩世不恭的Dash(Austin Abrams饰)及乐观的Lily(Midor i Francis)在同一本笔记本上写下各种事情,然后放在纽约各种地方来交换笔记,期间两人发现对方原来与自己有很多共同之处。
恋爱挑战书(台)/达奇与莉莉4k Dash.and.Lily.S01.2160p.NF.WEBRip.x265.10bit.HDR.DDP5.1-4k美剧信息
  1. Video
  2. ID : 1
  3. Format : HEVC
  4. Format/Info : High Efficiency Video Coding
  5. Format profile : Main 10@L5.1@High
  6. HDR format : SMPTE ST 2086, HDR10 compatible
  7. Codec ID : V_MPEGH/ISO/HEVC
  8. Duration : 26 min 2 s
  9. Bit rate : 11.4 Mb/s
  10. Width : 3 840 pixels
  11. Height : 1 920 pixels
  12. Display aspect ratio : 2.000
  13. Frame rate mode : Constant
  14. Frame rate : 23.976 (24000/1001) FPS
  15. Original frame rate : 23.976 (23976/1000) FPS
  16. Color space : YUV
  17. Chroma subsampling : 4:2:0 (Type 2)
  18. Bit depth : 10 bits
  19. Bits/(Pixel*Frame) : 0.064
  20. Stream size : 2.07 GiB (94%)
  21. Writing library : x265 3.4+26-g83e2d7fb0:[Windows][GCC 9.3.0][64 bit] 10bit
  22. Encoding settings : cpuid=1111039 / frame-threads=4 / numa-pools=28 / wpp / no-pmode / no-pme / no-psnr / no-ssim / log-level=2 / input-csp=1 / input-res=3840x1920 / interlace=0 / total-frames=0 / level-idc=51 / high-tier=1 / uhd-bd=0 / ref=4 / no-allow-non-conformance / repeat-headers / annexb / no-aud / no-hrd / info / hash=0 / no-temporal-layers / no-open-gop / min-keyint=23 / keyint=250 / gop-lookahead=0 / bframes=3 / b-adapt=2 / b-pyramid / bframe-bias=0 / rc-lookahead=20 / lookahead-slices=8 / scenecut=40 / hist-scenecut=0 / radl=0 / no-splice / no-intra-refresh / ctu=64 / min-cu-size=8 / no-rect / no-amp / max-tu-size=32 / tu-inter-depth=1 / tu-intra-depth=1 / limit-tu=0 / rdoq-level=0 / dynamic-rd=0.00 / no-ssim-rd / signhide / no-tskip / nr-intra=0 / nr-inter=0 / no-constrained-intra / no-strong-intra-smoothing / max-merge=3 / limit-refs=1 / no-limit-modes / me=1 / subme=2 / merange=57 / temporal-mvp / no-frame-dup / no-hme / weightp / no-weightb / no-analyze-src-pics / deblock=-3:-3 / no-sao / no-sao-non-deblock / rd=3 / selective-sao=0 / early-skip / rskip / no-fast-intra / no-tskip-fast / no-cu-lossless / b-intra / no-splitrd-skip / rdpenalty=0 / psy-rd=2.00 / psy-rdoq=0.00 / no-rd-refine / no-lossless / cbqpoffs=0 / crqpoffs=0 / rc=crf / crf=19.0 / qcomp=0.60 / qpstep=4 / stats-write=0 / stats-read=0 / vbv-maxrate=160000 / vbv-bufsize=160000 / vbv-init=0.9 / min-vbv-fullness=50.0 / max-vbv-fullness=80.0 / crf-max=0.0 / crf-min=0.0 / ipratio=1.40 / pbratio=1.30 / aq-mode=2 / aq-strength=1.00 / no-cutree / zone-count=0 / no-strict-cbr / qg-size=32 / no-rc-grain / qpmax=69 / qpmin=0 / no-const-vbv / sar=0 / overscan=0 / videoformat=5 / range=0 / colorprim=9 / transfer=16 / colormatrix=9 / chromaloc=1 / chromaloc-top=2 / chromaloc-bottom=2 / display-window=0 / master-display=G(13250,34500)B(7500,3000)R(34000,16000)WP(15635,16450)L(10000000,1) / cll=1235,634 / min-luma=0 / max-luma=1023 / log2-max-poc-lsb=8 / vui-timing-info / vui-hrd-info / slices=1 / no-opt-qp-pps / no-opt-ref-list-length-pps / no-multi-pass-opt-rps / scenecut-bias=0.05 / hist-threshold=0.03 / no-opt-cu-delta-qp / no-aq-motion / hdr10 / hdr10-opt / no-dhdr10-opt / no-idr-recovery-sei / analysis-reuse-level=0 / analysis-save-reuse-level=0 / analysis-load-reuse-level=0 / scale-factor=0 / refine-intra=0 / refine-inter=0 / refine-mv=1 / refine-ctu-distortion=0 / no-limit-sao / ctu-info=0 / no-lowpass-dct / refine-analysis-type=0 / copy-pic=1 / max-ausize-factor=1.0 / no-dynamic-refine / no-single-sei / no-hevc-aq / no-svt / no-field / qp-adaptation-range=1.00 / no-scenecut-aware-qpconformance-window-offsets / right=0 / bottom=0 / decoder-max-rate=0 / no-vbv-live-multi-pass
  23. Language : German
  24. Default : Yes
  25. Forced : No
  26. Color range : Limited
  27. Color primaries : BT.2020
  28. Transfer characteristics : PQ
  29. Matrix coefficients : BT.2020 non-constant
  30. Mastering display color primaries : Display P3
  31. Mastering display luminance : min: 0.0001 cd/m2, max: 1000 cd/m2
  32. Maximum Content Light Level : 1235 cd/m2
  33. Maximum Frame-Average Light Level : 634 cd/m2

  34. Audio
  35. ID : 2
  36. Format : E-AC-3
  37. Format/Info : Enhanced AC-3
  38. Commercial name : Dolby Digital Plus
  39. Codec ID : A_EAC3
  40. Duration : 26 min 59 s
  41. Bit rate mode : Constant
  42. Bit rate : 640 kb/s
  43. Channel(s) : 6 channels
  44. Channel layout : L R C LFE Ls Rs
  45. Sampling rate : 48.0 kHz
  46. Frame rate : 31.250 FPS (1536 SPF)
  47. Compression mode : Lossy
  48. Delay relative to video : 9 ms
  49. Stream size : 124 MiB (6%)
  50. Title : ENG E-AC3 5.1 640kbit
  51. Language : English
  52. Service kind : Complete Main
  53. Default : No
  54. Forced : No

  55. Text
  56. ID : 3
  57. Format : UTF-8
  58. Codec ID : S_TEXT/UTF8
  59. Codec ID/Info : UTF-8 Plain Text
  60. Duration : 24 min 32 s
  61. Bit rate : 80 b/s
  62. Count of elements : 448
  63. Stream size : 14.5 KiB (0%)
  64. Language : English
  65. Default : No
  66. Forced : No
复制代码

恋爱挑战书(台)/达奇与莉莉4k Dash.and.Lily.S01.2160p.NF.WEBRip.x265.10bit.HDR.DDP5.1-4k美剧下载

达奇与莉莉4k Dash.and.Lily.S01.2160p.NF.WEBRip.x265.10bit.HDR.DDP5.1【15.55 GB】
达奇与莉莉4kDash.and.Lily.S01.2160p.NF.WEBRip.x265.10bit.HDR.DDP5.1-iNSPiRiT[rar.torrent
(78.95 KB)
回复

使用道具 举报

您需要登录后才可以回帖 登录 | 立即注册

本版积分规则

在线客服

在线客服

服务时间 9:00—18:00

返回顶部

关注微信公众号第一时间推送精彩

官方微信

手机访问

Hao4K影音

专注4k家庭影音,提供家庭影音社区,家庭影音器材库,影音问答平台,影音商城,服务千万家庭影音用户。

本站内容部分由用户自主分享和转载自互联网,转载目的在于传递更多信息,并不代表本网赞同其观点和对其真实性负责。

如有侵权、违反国家法律政策行为,请联系我们,我们会第一时间及时清除和处理!

举报反馈邮箱:admin@hao4k.cn

Copyright  2019-2020  Hao4K影音粤公网安备 44030302001429号    ( 粤ICP备18155646号-1 )|网站地图