专注4K家庭影音, 服务千万家庭影音发烧友!

[美剧] 无丁之地4k No.Mans.Land.2020.S01.FRENCH.ENSUBBED.2160p.HULU.WEBRip.DDP5.1.x265-4k美剧

大红色 发表于 2020-11-19 06:57:26 | 显示全部楼层
电视剧频道
电视剧封面:
电视剧名: 无丁之地4k
年  代: 2020  
国  家: 美国
类  别: 战争 惊悚 剧情 
语  言: 英语
字  幕: 英文原版
上映日期: 2020-11-18
文件格式: mkv    
视频效果: 4K(3840x2160)    
资源大小: 33.46 GB
片  长: -
导  演: 奥戴德·拉斯金
剧情简介: 詹姆斯·鲍弗将主演以叙利亚内战为背景的Hulu新剧《新月沃土》(Fertile Crescent,暂译)。本剧卡司还有费利克斯·莫阿蒂、梅兰尼·蒂埃里等。剧集将以独特视角探索关于叙利亚事件及其对世界的影响。鲍弗饰演的法国男子安东尼在寻找他疏远的、被认为已经死去的妹妹的过程中,最终加入了一支由库尔德女战士组成的部队。
新月沃土 / Fertile Crescent / 无人之地/无丁之地4k No.Mans.Land.2020.S01.FRENCH.ENSUBBED.2160p.HULU.WEBRip.DDP5.1.x265-4k美剧信息
  1. Video
  2. ID : 1
  3. Format : HEVC
  4. Format/Info : High Efficiency Video Coding
  5. Format profile : Main 10@L5.1@Main
  6. Codec ID : V_MPEGH/ISO/HEVC
  7. Duration : 52 min 19 s
  8. Bit rate : 13.8 Mb/s
  9. Width : 3 840 pixels
  10. Height : 2 160 pixels
  11. Display aspect ratio : 16:9
  12. Frame rate mode : Constant
  13. Frame rate : 25.000 FPS
  14. Color space : YUV
  15. Chroma subsampling : 4:2:0
  16. Bit depth : 10 bits
  17. Bits/(Pixel*Frame) : 0.066
  18. Stream size : 5.03 GiB (98%)
  19. Default : Yes
  20. Forced : No

  21. Audio
  22. ID : 2
  23. Format : E-AC-3
  24. Format/Info : Enhanced AC-3
  25. Commercial name : Dolby Digital Plus
  26. Codec ID : A_EAC3
  27. Duration : 52 min 19 s
  28. Bit rate mode : Constant
  29. Bit rate : 256 kb/s
  30. Channel(s) : 6 channels
  31. Channel layout : L R C LFE Ls Rs
  32. Sampling rate : 48.0 kHz
  33. Frame rate : 31.250 FPS (1536 SPF)
  34. Compression mode : Lossy
  35. Stream size : 95.8 MiB (2%)
  36. Language : English
  37. Service kind : Complete Main
  38. Default : Yes
  39. Forced : No

  40. Text #1
  41. ID : 3
  42. Format : UTF-8
  43. Codec ID : S_TEXT/UTF8
  44. Codec ID/Info : UTF-8 Plain Text
  45. Duration : 51 min 43 s
  46. Bit rate : 50 b/s
  47. Count of elements : 607
  48. Stream size : 19.2 KiB (0%)
  49. Title : SDH
  50. Language : English
  51. Default : No
  52. Forced : No

  53. Text #2
  54. ID : 4
  55. Format : UTF-8
  56. Codec ID : S_TEXT/UTF8
  57. Codec ID/Info : UTF-8 Plain Text
  58. Duration : 51 min 52 s
  59. Bit rate : 66 b/s
  60. Count of elements : 767
  61. Stream size : 25.4 KiB (0%)
  62. Language : Spanish
  63. Default : No
  64. Forced : No

  65. Menu
  66. 00:06:26.005 : en:Chapter 01
  67. 00:11:47.016 : en:Chapter 02
  68. 00:31:58.003 : en:Chapter 03
  69. 00:36:59.006 : en:Chapter 04
  70. 00:51:24.022 : en:Credits
复制代码

新月沃土 / Fertile Crescent / 无人之地/无丁之地4k No.Mans.Land.2020.S01.FRENCH.ENSUBBED.2160p.HULU.WEBRip.DDP5.1.x265-4k美剧下载

无丁之地4k No.Mans.Land.2020.S01.FRENCH.ENSUBBED.2160p.HULU.WEBRip.DDP5.1.x265【33.46 GB】
[Hao4k]无丁之地4k No.Mans.Land.2020.S01.FRENCH.ENSUBBED.2160p.HULU.WEBRip.DDP5.1.torrent
(84.86 KB)
回复

使用道具 举报

发烧友评论6

倒序浏览
苏默金武 发表于 前天 23:09 | 显示全部楼层
回复 支持 反对

使用道具 举报

Mr_shen 发表于 3 天前 | 显示全部楼层
请问是带字幕的吗?
回复 支持 反对

使用道具 举报

Mr_shen 发表于 3 天前 | 显示全部楼层

请问你那有字幕了吗
回复 支持 反对

使用道具 举报

b32666 发表于 2020-11-19 23:26:48 | 显示全部楼层
谢谢楼主分享
回复 支持 反对

使用道具 举报

hk1560777 发表于 2020-11-19 17:34:00 | 显示全部楼层
关键是有字幕吗
回复 支持 反对

使用道具 举报

kaipu529 发表于 2020-11-19 09:43:27 | 显示全部楼层
谢谢楼主分享资源!
回复 支持 反对

使用道具 举报

您需要登录后才可以回帖 登录 | 立即注册

本版积分规则

在线客服

在线客服

服务时间 9:00—18:00

返回顶部

关注微信公众号第一时间推送精彩

官方微信

手机访问

Hao4K影音

专注4k家庭影音,提供家庭影音社区,家庭影音器材库,影音问答平台,影音商城,服务千万家庭影音用户。

本站内容部分由用户自主分享和转载自互联网,转载目的在于传递更多信息,并不代表本网赞同其观点和对其真实性负责。

如有侵权、违反国家法律政策行为,请联系我们,我们会第一时间及时清除和处理!

举报反馈邮箱:admin@hao4k.cn

Copyright  2019-2020  Hao4K影音粤公网安备 44030302001429号    ( 粤ICP备18155646号-1 )|网站地图