专注4K家庭影音, 服务千万家庭影音发烧友!

[待验证4K资源] 黑夜传说3:狼族崛起4k Underworld Rise of the Lycans 2009 2160p.4k电影下载

碧池 发表于 2020-11-20 12:10:57 | 显示全部楼层
电影频道
电影封面:
片  名: 黑夜传说3:狼族崛起4k
电影分类: 动作 惊悚 奇幻 
国  家: 美国 其他 
年  代: 00年代
分 辨 率: 4K(3840x2160)
电影格式: MKV|REMUX 
画质标准: 其他 
音质编码: 其他AAC 
电影声道: 5.1声道 
帧数/FPS: 23.976 FPS
电影语言: 英文原版 
资源大小: 4.2 GB
导  演: 帕特里克·塔特普洛斯
豆瓣评分: 6.8 分
中文字幕: /thread-51427-1-1.html
剧情简介: 遥远的黑暗世纪,柯文诺斯的子孙一分为二。血族在维多(比利·奈伊 Bill Nighy 饰)的领导下独行天下,强大的吸血兵团压制极具传染性且无法进化成人的残暴狼族。直到某天,一个神奇的生命诞生,改变了这两个家族的命运。一只母狼诞下有着人类外表的狼人路西安(麦克·辛 Michael Sheen 饰),维多窥见狼人身体内的强大实力,于是对其大量繁殖,并将狼人纳为服务血族的奴隶。奴隶的苦难永无终结,而在这一过程中路西安还冒天下之大不韪与维多的女儿桑雅(罗娜·迈特拉 Rhona Mitra 饰)偷偷相恋。
  渴望自由的路西安最终设法解开维多对自己的禁锢,狼人与血族持续数百年的战争亦由此拉开序幕……
妖夜寻狼前传之狼神诞生(港) / 决战异世界前传:鬼哭狼嚎(台) / 妖夜寻狼前传之狼神诞生 / 黑夜传说前传:狼族再起/黑夜传说3:狼族崛起4k Underworld Rise of the Lycans 2009 2160p Bluray x265 HEVC AI 10bit AAC 5.1.4k电影信息
  1. Video
  2. ID : 1
  3. Format : HEVC
  4. Format/Info : High Efficiency Video Coding
  5. Codec ID : V_MPEGH/ISO/HEVC
  6. Duration : 1 h 32 min
  7. Bit rate : 6 001 kb/s
  8. Width : 3 840 pixels
  9. Height : 1 600 pixels
  10. Display aspect ratio : 2.40:1
  11. Frame rate mode : Constant
  12. Frame rate : 23.976 (24000/1001) FPS
  13. Color space : YUV
  14. Chroma subsampling : 4:2:0
  15. Bit depth : 10 bits
  16. Bits/(Pixel*Frame) : 0.041
  17. Stream size : 3.88 GiB (92%)
  18. Writing library : x265 3.2+9-971180b100f8:[Windows][GCC 9.2.0][64 bit] 10bit
  19. Encoding settings : cpuid=1111039 / frame-threads=3 / numa-pools=12 / wpp / no-pmode / no-pme / no-psnr / ssim / log-level=2 / input-csp=1 / input-res=3840x1600 / interlace=0 / total-frames=133034 / level-idc=0 / high-tier=1 / uhd-bd=0 / ref=4 / no-allow-non-conformance / no-repeat-headers / annexb / no-aud / no-hrd / info / hash=0 / no-temporal-layers / open-gop / min-keyint=23 / keyint=250 / gop-lookahead=0 / bframes=8 / b-adapt=2 / b-pyramid / bframe-bias=40 / rc-lookahead=80 / lookahead-slices=4 / scenecut=40 / radl=0 / no-splice / no-intra-refresh / ctu=64 / min-cu-size=8 / no-rect / no-amp / max-tu-size=32 / tu-inter-depth=1 / tu-intra-depth=1 / limit-tu=0 / rdoq-level=2 / dynamic-rd=0.00 / ssim-rd / signhide / no-tskip / nr-intra=0 / nr-inter=0 / constrained-intra / strong-intra-smoothing / max-merge=3 / limit-refs=3 / limit-modes / me=3 / subme=3 / merange=57 / temporal-mvp / no-frame-dup / no-hme / weightp / no-weightb / no-analyze-src-pics / deblock=0:0 / sao / no-sao-non-deblock / rd=4 / selective-sao=4 / no-early-skip / rskip / no-fast-intra / no-tskip-fast / no-cu-lossless / no-b-intra / no-splitrd-skip / rdpenalty=0 / psy-rd=3.50 / psy-rdoq=2.50 / no-rd-refine / no-lossless / cbqpoffs=0 / crqpoffs=0 / rc=abr / bitrate=6000 / qcomp=0.60 / qpstep=4 / stats-write=0 / stats-read=2 / cplxblur=20.0 / qblur=0.5 / ipratio=1.40 / pbratio=1.30 / aq-mode=3 / aq-strength=0.40 / cutree / zone-count=0 / no-strict-cbr / qg-size=32 / no-rc-grain / qpmax=69 / qpmin=0 / no-const-vbv / sar=0 / overscan=0 / videoformat=5 / range=0 / colorprim=1 / transfer=1 / colormatrix=1 / chromaloc=0 / display-window=0 / cll=0,0 / min-luma=0 / max-luma=1023 / log2-max-poc-lsb=8 / vui-timing-info / vui-hrd-info / slices=1 / no-opt-qp-pps / no-opt-ref-list-length-pps / multi-pass-opt-rps / scenecut-bias=0.05 / no-opt-cu-delta-qp / no-aq-motion / no-hdr / no-hdr-opt / no-dhdr10-opt / no-idr-recovery-sei / analysis-load / analysis-reuse-level=10 / scale-factor=0 / refine-intra=0 / refine-inter=0 / refine-mv=1 / refine-ctu-distortion=0 / limit-sao / ctu-info=0 / no-lowpass-dct / refine-analysis-type=0 / copy-pic=1 / max-ausize-factor=1.0 / no-dynamic-refine / no-single-sei / no-hevc-aq / no-svt / no-field / qp-adaptation-range=1.00
  20. Default : Yes
  21. Forced : No
  22. Color range : Limited
  23. Color primaries : BT.709
  24. Transfer characteristics : BT.709
  25. Matrix coefficients : BT.709

  26. Audio
  27. ID : 2
  28. Format : AAC
  29. Format/Info : Advanced Audio Codec
  30. Format profile : LC
  31. Codec ID : A_AAC
  32. Duration : 1 h 32 min
  33. Bit rate : 454 kb/s
  34. Channel(s) : 6 channels
  35. Channel positions : Front: L C R, Side: L R, LFE
  36. Sampling rate : 48.0 kHz
  37. Frame rate : 46.875 FPS (1024 spf)
  38. Compression mode : Lossy
  39. Delay relative to video : 9 ms
  40. Stream size : 300 MiB (7%)
  41. Language : English
  42. Default : No
  43. Forced : No

  44. Subtitle #1
  45. ID : 3
  46. Format : PGS
  47. Muxing mode : zlib
  48. Codec ID : S_HDMV/PGS
  49. Codec ID/Info : Picture based subtitle format used on BDs/HD-DVDs
  50. Duration : 1 h 22 min
  51. Bit rate : 19.1 kb/s
  52. Count of elements : 1313
  53. Stream size : 11.2 MiB (0%)
  54. Language : English
  55. Default : No
  56. Forced : No

  57. Subtitle #2
  58. ID : 4
  59. Format : VobSub
  60. Muxing mode : zlib
  61. Codec ID : S_VOBSUB
  62. Codec ID/Info : Picture based subtitle format used on DVDs
  63. Duration : 1 h 31 min
  64. Bit rate : 4 282 b/s
  65. Count of elements : 730
  66. Stream size : 2.80 MiB (0%)
  67. Language : English
  68. Default : No
  69. Forced : No

  70. Subtitle #3
  71. ID : 5
  72. Format : VobSub
  73. Muxing mode : zlib
  74. Codec ID : S_VOBSUB
  75. Codec ID/Info : Picture based subtitle format used on DVDs
  76. Duration : 1 h 31 min
  77. Bit rate : 4 923 b/s
  78. Count of elements : 644
  79. Stream size : 3.23 MiB (0%)
  80. Language : French
  81. Default : No
  82. Forced : No

  83. Subtitle #4
  84. ID : 6
  85. Format : VobSub
  86. Muxing mode : zlib
  87. Codec ID : S_VOBSUB
  88. Codec ID/Info : Picture based subtitle format used on DVDs
  89. Duration : 1 h 23 min
  90. Bit rate : 5 135 b/s
  91. Count of elements : 646
  92. Stream size : 3.08 MiB (0%)
  93. Language : Spanish
  94. Default : No
  95. Forced : No

  96. Subtitle #5
  97. ID : 7
  98. Format : VobSub
  99. Muxing mode : zlib
  100. Codec ID : S_VOBSUB
  101. Codec ID/Info : Picture based subtitle format used on DVDs
  102. Duration : 1 h 23 min
  103. Bit rate : 4 615 b/s
  104. Count of elements : 608
  105. Stream size : 2.77 MiB (0%)
  106. Language : Portuguese
  107. Default : No
  108. Forced : No

  109. Subtitle #6
  110. ID : 8
  111. Format : VobSub
  112. Muxing mode : zlib
  113. Codec ID : S_VOBSUB
  114. Codec ID/Info : Picture based subtitle format used on DVDs
  115. Duration : 1 h 26 min
  116. Bit rate : 17.6 kb/s
  117. Count of elements : 1861
  118. Stream size : 11.0 MiB (0%)
  119. Language : Spanish
  120. Default : No
  121. Forced : No

  122. Subtitle #7
  123. ID : 9
  124. Format : VobSub
  125. Muxing mode : zlib
  126. Codec ID : S_VOBSUB
  127. Codec ID/Info : Picture based subtitle format used on DVDs
  128. Duration : 1 h 26 min
  129. Bit rate : 19.0 kb/s
  130. Count of elements : 1853
  131. Stream size : 11.8 MiB (0%)
  132. Language : Portuguese
  133. Default : No
  134. Forced : No

  135. Subtitle #8
  136. ID : 10
  137. Format : VobSub
  138. Muxing mode : zlib
  139. Codec ID : S_VOBSUB
  140. Codec ID/Info : Picture based subtitle format used on DVDs
  141. Duration : 1 h 16 min
  142. Bit rate : 193 b/s
  143. Count of elements : 23
  144. Stream size : 108 KiB (0%)
  145. Language : English
  146. Default : No
  147. Forced : No

  148. Subtitle #9
  149. ID : 11
  150. Format : VobSub
  151. Muxing mode : zlib
  152. Codec ID : S_VOBSUB
  153. Codec ID/Info : Picture based subtitle format used on DVDs
  154. Duration : 1 h 16 min
  155. Bit rate : 154 b/s
  156. Count of elements : 23
  157. Stream size : 86.4 KiB (0%)
  158. Language : English
  159. Default : No
  160. Forced : No

  161. Subtitle #10
  162. ID : 12
  163. Format : VobSub
  164. Muxing mode : zlib
  165. Codec ID : S_VOBSUB
  166. Codec ID/Info : Picture based subtitle format used on DVDs
  167. Duration : 1 h 22 min
  168. Bit rate : 15.3 kb/s
  169. Count of elements : 1204
  170. Stream size : 8.98 MiB (0%)
  171. Language : Spanish
  172. Default : No
  173. Forced : No

  174. Subtitle #11
  175. ID : 13
  176. Format : VobSub
  177. Muxing mode : zlib
  178. Codec ID : S_VOBSUB
  179. Codec ID/Info : Picture based subtitle format used on DVDs
  180. Duration : 1 h 22 min
  181. Bit rate : 15.6 kb/s
  182. Count of elements : 1203
  183. Stream size : 9.18 MiB (0%)
  184. Language : Portuguese
  185. Default : No
  186. Forced : No

  187. Subtitle #12
  188. ID : 14
  189. Format : UTF-8
  190. Codec ID : S_TEXT/UTF8
  191. Codec ID/Info : UTF-8 Plain Text
  192. Duration : 1 h 22 min
  193. Bit rate : 46 b/s
  194. Count of elements : 645
  195. Stream size : 28.1 KiB (0%)
  196. Language : Arabic
  197. Default : No
  198. Forced : No

  199. Subtitle #13
  200. ID : 15
  201. Format : UTF-8
  202. Codec ID : S_TEXT/UTF8
  203. Codec ID/Info : UTF-8 Plain Text
  204. Duration : 1 h 24 min
  205. Bit rate : 26 b/s
  206. Count of elements : 602
  207. Stream size : 16.3 KiB (0%)
  208. Title : Brazillian
  209. Language : Portuguese
  210. Default : No
  211. Forced : No

  212. Subtitle #14
  213. ID : 16
  214. Format : UTF-8
  215. Codec ID : S_TEXT/UTF8
  216. Codec ID/Info : UTF-8 Plain Text
  217. Duration : 1 h 22 min
  218. Bit rate : 20 b/s
  219. Count of elements : 502
  220. Stream size : 12.4 KiB (0%)
  221. Language : Chinese
  222. Default : No
  223. Forced : No

  224. Subtitle #15
  225. ID : 17
  226. Format : UTF-8
  227. Codec ID : S_TEXT/UTF8
  228. Codec ID/Info : UTF-8 Plain Text
  229. Duration : 1 h 22 min
  230. Bit rate : 28 b/s
  231. Count of elements : 559
  232. Stream size : 17.4 KiB (0%)
  233. Language : Danish
  234. Default : No
  235. Forced : No

  236. Subtitle #16
  237. ID : 18
  238. Format : UTF-8
  239. Codec ID : S_TEXT/UTF8
  240. Codec ID/Info : UTF-8 Plain Text
  241. Duration : 1 h 23 min
  242. Bit rate : 30 b/s
  243. Count of elements : 508
  244. Stream size : 18.4 KiB (0%)
  245. Language : Dutch
  246. Default : No
  247. Forced : No

  248. Subtitle #17
  249. ID : 19
  250. Format : UTF-8
  251. Codec ID : S_TEXT/UTF8
  252. Codec ID/Info : UTF-8 Plain Text
  253. Duration : 1 h 22 min
  254. Bit rate : 59 b/s
  255. Count of elements : 657
  256. Stream size : 35.9 KiB (0%)
  257. Language : Persian
  258. Default : No
  259. Forced : No

  260. Subtitle #18
  261. ID : 20
  262. Format : UTF-8
  263. Codec ID : S_TEXT/UTF8
  264. Codec ID/Info : UTF-8 Plain Text
  265. Duration : 1 h 22 min
  266. Bit rate : 33 b/s
  267. Count of elements : 479
  268. Stream size : 20.0 KiB (0%)
  269. Language : Finnish
  270. Default : No
  271. Forced : No

  272. Subtitle #19
  273. ID : 21
  274. Format : UTF-8
  275. Codec ID : S_TEXT/UTF8
  276. Codec ID/Info : UTF-8 Plain Text
  277. Duration : 1 h 22 min
  278. Bit rate : 53 b/s
  279. Count of elements : 612
  280. Stream size : 32.5 KiB (0%)
  281. Language : Greek
  282. Default : No
  283. Forced : No

  284. Subtitle #20
  285. ID : 22
  286. Format : UTF-8
  287. Codec ID : S_TEXT/UTF8
  288. Codec ID/Info : UTF-8 Plain Text
  289. Duration : 1 h 23 min
  290. Bit rate : 44 b/s
  291. Count of elements : 669
  292. Stream size : 26.9 KiB (0%)
  293. Language : Hebrew
  294. Default : No
  295. Forced : No

  296. Subtitle #21
  297. ID : 23
  298. Format : UTF-8
  299. Codec ID : S_TEXT/UTF8
  300. Codec ID/Info : UTF-8 Plain Text
  301. Duration : 1 h 22 min
  302. Bit rate : 31 b/s
  303. Count of elements : 503
  304. Stream size : 19.1 KiB (0%)
  305. Language : Indonesian
  306. Default : No
  307. Forced : No

  308. Subtitle #22
  309. ID : 24
  310. Format : UTF-8
  311. Codec ID : S_TEXT/UTF8
  312. Codec ID/Info : UTF-8 Plain Text
  313. Duration : 1 h 22 min
  314. Bit rate : 33 b/s
  315. Count of elements : 553
  316. Stream size : 20.3 KiB (0%)
  317. Language : Italian
  318. Default : No
  319. Forced : No

  320. Subtitle #23
  321. ID : 25
  322. Format : UTF-8
  323. Codec ID : S_TEXT/UTF8
  324. Codec ID/Info : UTF-8 Plain Text
  325. Duration : 1 h 23 min
  326. Bit rate : 34 b/s
  327. Count of elements : 655
  328. Stream size : 21.1 KiB (0%)
  329. Language : Korean
  330. Default : No
  331. Forced : No

  332. Subtitle #24
  333. ID : 26
  334. Format : UTF-8
  335. Codec ID : S_TEXT/UTF8
  336. Codec ID/Info : UTF-8 Plain Text
  337. Duration : 1 h 22 min
  338. Bit rate : 33 b/s
  339. Count of elements : 654
  340. Stream size : 20.2 KiB (0%)
  341. Language : Norwegian
  342. Default : No
  343. Forced : No

  344. Subtitle #25
  345. ID : 27
  346. Format : UTF-8
  347. Codec ID : S_TEXT/UTF8
  348. Codec ID/Info : UTF-8 Plain Text
  349. Duration : 1 h 31 min
  350. Bit rate : 30 b/s
  351. Count of elements : 643
  352. Stream size : 20.1 KiB (0%)
  353. Language : Swedish
  354. Default : No
  355. Forced : No

  356. Subtitle #26
  357. ID : 28
  358. Format : UTF-8
  359. Codec ID : S_TEXT/UTF8
  360. Codec ID/Info : UTF-8 Plain Text
  361. Duration : 1 h 23 min
  362. Bit rate : 79 b/s
  363. Count of elements : 632
  364. Stream size : 48.5 KiB (0%)
  365. Language : Thai
  366. Default : No
  367. Forced : No

  368. Subtitle #27
  369. ID : 29
  370. Format : UTF-8
  371. Codec ID : S_TEXT/UTF8
  372. Codec ID/Info : UTF-8 Plain Text
  373. Duration : 1 h 22 min
  374. Bit rate : 51 b/s
  375. Count of elements : 660
  376. Stream size : 30.9 KiB (0%)
  377. Language : Vietnamese
  378. Default : No
  379. Forced : No

  380. Menu
  381. 00:00:00.000 : en:Chapter 1
  382. 00:06:19.879 : en:Chapter 2
  383. 00:11:42.785 : en:Chapter 3
  384. 00:16:44.628 : en:Chapter 4
  385. 00:24:33.054 : en:Chapter 5
  386. 00:30:28.493 : en:Chapter 6
  387. 00:36:33.149 : en:Chapter 7
  388. 00:40:17.415 : en:Chapter 8
  389. 00:46:28.869 : en:Chapter 9
  390. 00:50:54.593 : en:Chapter 10
  391. 00:55:08.221 : en:Chapter 11
  392. 01:00:39.302 : en:Chapter 12
  393. 01:07:13.279 : en:Chapter 13
  394. 01:13:29.321 : en:Chapter 14
  395. 01:16:38.844 : en:Chapter 15
  396. 01:22:33.156 : en:Chapter 16
复制代码

妖夜寻狼前传之狼神诞生(港) / 决战异世界前传:鬼哭狼嚎(台) / 妖夜寻狼前传之狼神诞生 / 黑夜传说前传:狼族再起/黑夜传说3:狼族崛起4k Underworld Rise of the Lycans 2009 2160p Bluray x265 HEVC AI 10bit AAC 5.1.4k电影下载

黑夜传说3:狼族崛起4k Underworld Rise of the Lycans 2009 2160p Bluray x265 HEVC AI 10bit AAC 5.1【4.2 GB】
黑夜传说3:狼族崛起4k.txt
(102 Bytes)
回复

使用道具 举报

发烧友评论15

倒序浏览
风的自由 发表于 3 天前 | 显示全部楼层
fumj0316 发表于 2020-11-21 16:24
老片了,续作挺一般,女主没以前好看。

女主老了,就这么简单
回复 支持 反对

使用道具 举报

cv2020 发表于 4 天前 | 显示全部楼层
谢谢分享,辛苦了
回复 支持 反对

使用道具 举报

lujian2004 发表于 5 天前 | 显示全部楼层
就喜欢这片子
回复 支持 反对

使用道具 举报

pigeonlee 发表于 6 天前 | 显示全部楼层
片子非常好,经典系列,支持!
回复 支持 反对

使用道具 举报

5555pmn 发表于 6 天前 | 显示全部楼层
黑夜传说3:狼族崛起4k
回复 支持 反对

使用道具 举报

xxw8888 发表于 6 天前 Hao4K手机版 | 显示全部楼层
谢谢分享,辛苦了
回复 支持 反对

使用道具 举报

yangly 发表于 6 天前 Hao4K手机版 | 显示全部楼层
迷你片子,谢谢分享
回复 支持 反对

使用道具 举报

Hao4k网友  发表于 7 天前
支持一个,新人报道
回复 支持 反对

使用道具

gj2003 发表于 7 天前 | 显示全部楼层
恐怖但不可怕
回复 支持 反对

使用道具 举报

苏默金武 发表于 2020-11-21 16:53:37 | 显示全部楼层
回复 支持 反对

使用道具 举报

fumj0316 发表于 2020-11-21 16:24:20 | 显示全部楼层
老片了,续作挺一般,女主没以前好看。
回复 支持 反对

使用道具 举报

风雨无阻-77 发表于 2020-11-21 11:55:06 | 显示全部楼层
非常经典的暗黑系列片子,恐怖但不可怕。
回复 支持 反对

使用道具 举报

您需要登录后才可以回帖 登录 | 立即注册

本版积分规则


0关注

30粉丝

83帖子

热门图文主题
热门主题
社区广告

在线客服

在线客服

服务时间 9:00—18:00

返回顶部

关注微信公众号第一时间推送精彩

官方微信

手机访问

Hao4K影音

专注4k家庭影音,提供家庭影音社区,家庭影音器材库,影音问答平台,影音商城,服务千万家庭影音用户。

本站内容部分由用户自主分享和转载自互联网,转载目的在于传递更多信息,并不代表本网赞同其观点和对其真实性负责。

如有侵权、违反国家法律政策行为,请联系我们,我们会第一时间及时清除和处理!

举报反馈邮箱:admin@hao4k.cn

Copyright  2019-2020  Hao4K影音粤公网安备 44030302001429号    ( 粤ICP备18155646号-1 )|网站地图