专注4K家庭影音, 服务千万家庭影音发烧友!

[美剧] 疯狂动画 第一季4k Animaniacs.2020.S01.2160p.HULU.WEBRip.DDP5.1.x265-美剧下载

大红色 发表于 2020-11-20 18:02:57 | 显示全部楼层
电视剧频道
电视剧封面:
电视剧名: 疯狂动画 第一季4k
年  代: 2020  
国  家: 美国
类  别: 喜剧 动画 
语  言: 英语
字  幕: 英文原版
上映日期: 2020-11-20
文件格式: mkv    
视频效果: 4K(3840x2160)    
资源大小: 36.33 GB
片  长: 20 分钟
导  演: Kathleen Chen / Lucas Crandles / Jess Lacher
剧情简介: They’re back! The Warner brothers, Yakko and Wakko, and the Warner sister Dot, have a great time wreaking havoc and mayhem in the lives of everyone they meet. After returning to their beloved home, the Warner Bros. water tower, the siblings waste no time in causing chaos and comic confusion as they run loose through the studio, turning the world into their personal playground. Joining Yakko, Wakko and Dot, fan-favorite characters Pinky and the Brain also return to continue their quest for world domination.
狂欢三宝/疯狂动画 第一季4k Animaniacs.2020.S01.2160p.HULU.WEBRip.DDP5.1.x265-美剧信息
  1. Video
  2. ID : 1
  3. Format : HEVC
  4. Format/Info : High Efficiency Video Coding
  5. Format profile : Main 10@L5.1@Main
  6. Codec ID : V_MPEGH/ISO/HEVC
  7. Duration : 27 min 2 s
  8. Bit rate : 15.5 Mb/s
  9. Width : 3 840 pixels
  10. Height : 2 160 pixels
  11. Display aspect ratio : 16:9
  12. Frame rate mode : Constant
  13. Frame rate : 23.976 (24000/1001) FPS
  14. Color space : YUV
  15. Chroma subsampling : 4:2:0
  16. Bit depth : 10 bits
  17. Bits/(Pixel*Frame) : 0.078
  18. Stream size : 2.93 GiB (96%)
  19. Default : Yes
  20. Forced : No

  21. Audio
  22. ID : 2
  23. Format : E-AC-3
  24. Format/Info : Enhanced AC-3
  25. Commercial name : Dolby Digital Plus
  26. Codec ID : A_EAC3
  27. Duration : 27 min 2 s
  28. Bit rate mode : Constant
  29. Bit rate : 256 kb/s
  30. Channel(s) : 6 channels
  31. Channel layout : L R C LFE Ls Rs
  32. Sampling rate : 48.0 kHz
  33. Frame rate : 31.250 FPS (1536 SPF)
  34. Compression mode : Lossy
  35. Stream size : 49.5 MiB (2%)
  36. Language : English
  37. Service kind : Complete Main
  38. Default : Yes
  39. Forced : No

  40. Text #1
  41. ID : 3
  42. Format : UTF-8
  43. Codec ID : S_TEXT/UTF8
  44. Codec ID/Info : UTF-8 Plain Text
  45. Title : English
  46. Language : English
  47. Default : No
  48. Forced : No

  49. Text #2
  50. ID : 4
  51. Format : UTF-8
  52. Codec ID : S_TEXT/UTF8
  53. Codec ID/Info : UTF-8 Plain Text
  54. Title : Spanish
  55. Language : Spanish
  56. Default : No
  57. Forced : No
复制代码

狂欢三宝/疯狂动画 第一季4k Animaniacs.2020.S01.2160p.HULU.WEBRip.DDP5.1.x265-美剧下载

疯狂动画 第一季4k Animaniacs.2020.S01.2160p.HULU.WEBRip.DDP5.1.x265【36.33 GB】
[Hao4k]疯狂动画 第一季4k Animaniacs.2020.S01.2160p.HULU.WEBRip.DDP5.1.x265-GGWP[.torrent
(92.27 KB)
回复

使用道具 举报

发烧友评论1

倒序浏览
您需要登录后才可以回帖 登录 | 立即注册

本版积分规则

在线客服

在线客服

服务时间 9:00—18:00

返回顶部

关注微信公众号第一时间推送精彩

官方微信

手机访问

Hao4K影音

专注4k家庭影音,提供家庭影音社区,家庭影音器材库,影音问答平台,影音商城,服务千万家庭影音用户。

本站内容部分由用户自主分享和转载自互联网,转载目的在于传递更多信息,并不代表本网赞同其观点和对其真实性负责。

如有侵权、违反国家法律政策行为,请联系我们,我们会第一时间及时清除和处理!

举报反馈邮箱:admin@hao4k.cn

Copyright  2019-2020  Hao4K影音粤公网安备 44030302001429号    ( 粤ICP备18155646号-1 )|网站地图