专注4K家庭影音, 服务千万家庭影音发烧友!

蝙蝠侠与比尔4k Batman.and.Bill.2017.2160p.电影下载

 关闭
青衫烟雨 发表于 2020-11-21 07:20:14 | 显示全部楼层
电影频道
电影封面:
片  名: 蝙蝠侠与比尔4k
电影分类: 纪录片 悬疑 动画 
国  家: 美国 
年  代: 2017年
分 辨 率: 4K(3840x2160)
电影格式: MKV|REMUX 
画质标准: SDR 
音质编码: DTS-HD Master Audio 
电影声道: 5.1声道 
帧数/FPS: 23.976 FPS
电影语言: 英文原版 
资源大小: 8.96 GB
导  演: Don Argott / Sheena M. Joyce
豆瓣评分: 8.9 分
中文字幕: -
剧情简介:  大家都知道DC漫畫裡,布魯斯韋恩是蝙蝠俠的真實身份,但他的真實創造者始終是個真正的謎。所有人都認為是鮑勃凱恩創造了蝙蝠俠,但還有另一位蝙蝠俠創作者的功績被歷史給埋沒。他並沒有戴著面具和斗篷,身分卻比蝙蝠俠還要神秘。
蝙蝠俠:無名之父(台)/蝙蝠侠与比尔4k Batman.and.Bill.2017.2160p.HULU.WEBRip.x265.10bit.SDR.DTS-HD.MA.5.1电影信息
  1. Video
  2. ID : 1
  3. Format : HEVC
  4. Format/Info : High Efficiency Video Coding
  5. Format profile : Main 10@L5.1@Main
  6. Codec ID : V_MPEGH/ISO/HEVC
  7. Duration : 1 h 32 min
  8. Bit rate : 12.0 Mb/s
  9. Width : 3 840 pixels
  10. Height : 2 160 pixels
  11. Display aspect ratio : 16:9
  12. Frame rate mode : Constant
  13. Frame rate : 23.976 (24000/1001) FPS
  14. Color space : YUV
  15. Chroma subsampling : 4:2:0
  16. Bit depth : 10 bits
  17. Bits/(Pixel*Frame) : 0.061
  18. Stream size : 7.82 GiB (87%)
  19. Default : Yes
  20. Forced : No

  21. Audio
  22. ID : 2
  23. Format : DTS XLL
  24. Format/Info : Digital Theater Systems
  25. Commercial name : DTS-HD Master Audio
  26. Codec ID : A_DTS
  27. Duration : 1 h 32 min
  28. Bit rate mode : Variable
  29. Bit rate : 1 747 kb/s
  30. Channel(s) : 6 channels
  31. Channel layout : C L R Ls Rs LFE
  32. Sampling rate : 48.0 kHz
  33. Frame rate : 93.750 FPS (512 SPF)
  34. Bit depth : 16 bits
  35. Compression mode : Lossless
  36. Delay relative to video : 89 ms
  37. Stream size : 1.13 GiB (13%)
  38. Default : Yes
  39. Forced : No

  40. Text #1
  41. ID : 3
  42. Format : UTF-8
  43. Codec ID : S_TEXT/UTF8
  44. Codec ID/Info : UTF-8 Plain Text
  45. Duration : 1 h 32 min
  46. Bit rate : 105 b/s
  47. Count of elements : 2152
  48. Stream size : 71.9 KiB (0%)
  49. Language : English
  50. Default : No
  51. Forced : No

  52. Text #2
  53. ID : 4
  54. Format : UTF-8
  55. Codec ID : S_TEXT/UTF8
  56. Codec ID/Info : UTF-8 Plain Text
  57. Duration : 1 h 32 min
  58. Bit rate : 122 b/s
  59. Count of elements : 2238
  60. Stream size : 83.6 KiB (0%)
  61. Language : Spanish
  62. Default : No
  63. Forced : No
复制代码

蝙蝠俠:無名之父(台)/蝙蝠侠与比尔4k Batman.and.Bill.2017.2160p.HULU.WEBRip.x265.10bit.SDR.DTS-HD.MA.5.1电影下载

蝙蝠侠与比尔4k Batman.and.Bill.2017.2160p.HULU.WEBRip.x265.10bit.SDR.DTS-HD.MA.5.1【8.96 GB】
蝙蝠侠与比尔4k Batman.and.Bill.2017.2160p.HULU.WEBRip.x265.10bit.SDR.DTS-HD.MA.5.torrent
(45.36 KB, 售价: 2 K币)
回复

使用道具 举报

您需要登录后才可以回帖 登录 | 立即注册

本版积分规则

在线客服

在线客服

服务时间 9:00—18:00

返回顶部

关注微信公众号第一时间推送精彩

官方微信

手机访问

Hao4K影音

专注4k家庭影音,提供家庭影音社区,家庭影音器材库,影音问答平台,影音商城,服务千万家庭影音用户。

本站内容部分由用户自主分享和转载自互联网,转载目的在于传递更多信息,并不代表本网赞同其观点和对其真实性负责。

如有侵权、违反国家法律政策行为,请联系我们,我们会第一时间及时清除和处理!

举报反馈邮箱:admin@hao4k.cn

Copyright  2019-2020  Hao4K影音粤公网安备 44030302001429号    ( 粤ICP备18155646号-1 )|网站地图