专注4K家庭影音, 服务千万家庭影音发烧友!

[美剧] 一路北上4k Long.Way.Up.S01.2160p.ATVP.WEB-DL.DDP5.1.Atmos.x265美剧下载

大红色 发表于 5 天前 | 显示全部楼层
电视剧频道
电视剧封面:
电视剧名: 一路北上4k
年  代: 2020  
国  家: 美国
类  别:  
语  言: 英语
字  幕: 英文原版
上映日期: 2020-09-18
文件格式: mkv    
视频效果: 4K(3840x2160)    
资源大小: 90.54 GB
片  长: -
导  演: Russ Malkin / David Alexanian
剧情简介: 这是2004年《Long Way Round》和2007年《Long Way Down》的后续,这次麦克格雷格跟朋友Charley Boorman骑着哈雷·戴维森电动摩托,穿越中南美洲的13000英里,从美丽的乌斯怀亚启程,经过13个国家。
长路再续 / 长路遥遥/一路北上4k Long.Way.Up.S01.2160p.ATVP.WEB-DL.DDP5.1.Atmos.x265美剧信息
  1. Video
  2. ID : 1
  3. Format : HEVC
  4. Format/Info : High Efficiency Video Coding
  5. Format profile : Main 10@L5@High
  6. Codec ID : V_MPEGH/ISO/HEVC
  7. Duration : 52 min 23 s
  8. Bit rate : 20.2 Mb/s
  9. Width : 3 840 pixels
  10. Height : 2 160 pixels
  11. Display aspect ratio : 16:9
  12. Frame rate mode : Constant
  13. Frame rate : 23.976 (23976/1000) FPS
  14. Color space : YUV
  15. Chroma subsampling : 4:2:0
  16. Bit depth : 10 bits
  17. Bits/(Pixel*Frame) : 0.102
  18. Stream size : 7.40 GiB (96%)
  19. Language : English
  20. Default : Yes
  21. Forced : No
  22. Color range : Limited
  23. Color primaries : BT.709
  24. Transfer characteristics : BT.709
  25. Matrix coefficients : BT.709

  26. Audio
  27. ID : 2
  28. Format : E-AC-3 JOC
  29. Format/Info : Enhanced AC-3 with Joint Object Coding
  30. Commercial name : Dolby Digital Plus with Dolby Atmos
  31. Codec ID : A_EAC3
  32. Duration : 52 min 23 s
  33. Bit rate mode : Constant
  34. Bit rate : 768 kb/s
  35. Channel(s) : 6 channels
  36. Channel layout : L R C LFE Ls Rs
  37. Sampling rate : 48.0 kHz
  38. Frame rate : 31.250 FPS (1536 SPF)
  39. Compression mode : Lossy
  40. Stream size : 288 MiB (4%)
  41. Language : English
  42. Service kind : Complete Main
  43. Default : Yes
  44. Forced : No
  45. Complexity index : 16
  46. Number of dynamic objects : 15
  47. Bed channel count : 1 channel
  48. Bed channel configuration : LFE

  49. Text #1
  50. ID : 3
  51. Format : UTF-8
  52. Codec ID : S_TEXT/UTF8
  53. Codec ID/Info : UTF-8 Plain Text
  54. Duration : 29 min 17 s
  55. Bit rate : 9 b/s
  56. Count of elements : 72
  57. Stream size : 2.00 KiB (0%)
  58. Title : Forced
  59. Language : English
  60. Default : Yes
  61. Forced : Yes

  62. Text #2
  63. ID : 4
  64. Format : UTF-8
  65. Codec ID : S_TEXT/UTF8
  66. Codec ID/Info : UTF-8 Plain Text
  67. Duration : 51 min 13 s
  68. Bit rate : 92 b/s
  69. Count of elements : 861
  70. Stream size : 34.7 KiB (0%)
  71. Language : English
  72. Default : No
  73. Forced : No

  74. Text #3
  75. ID : 5
  76. Format : UTF-8
  77. Codec ID : S_TEXT/UTF8
  78. Codec ID/Info : UTF-8 Plain Text
  79. Duration : 51 min 13 s
  80. Bit rate : 103 b/s
  81. Count of elements : 922
  82. Stream size : 39.0 KiB (0%)
  83. Title : English (SDH)
  84. Language : English
  85. Default : No
  86. Forced : No

  87. Text #4
  88. ID : 6
  89. Format : UTF-8
  90. Codec ID : S_TEXT/UTF8
  91. Codec ID/Info : UTF-8 Plain Text
  92. Duration : 52 min 9 s
  93. Bit rate : 118 b/s
  94. Count of elements : 884
  95. Stream size : 45.2 KiB (0%)
  96. Language : Arabic
  97. Default : No
  98. Forced : No

  99. Text #5
  100. ID : 7
  101. Format : UTF-8
  102. Codec ID : S_TEXT/UTF8
  103. Codec ID/Info : UTF-8 Plain Text
  104. Duration : 51 min 36 s
  105. Bit rate : 115 b/s
  106. Count of elements : 808
  107. Stream size : 43.8 KiB (0%)
  108. Language : Bulgarian
  109. Default : No
  110. Forced : No

  111. Text #6
  112. ID : 8
  113. Format : UTF-8
  114. Codec ID : S_TEXT/UTF8
  115. Codec ID/Info : UTF-8 Plain Text
  116. Duration : 51 min 39 s
  117. Bit rate : 74 b/s
  118. Count of elements : 829
  119. Stream size : 28.3 KiB (0%)
  120. Language : Czech
  121. Default : No
  122. Forced : No

  123. Text #7
  124. ID : 9
  125. Format : UTF-8
  126. Codec ID : S_TEXT/UTF8
  127. Codec ID/Info : UTF-8 Plain Text
  128. Duration : 51 min 36 s
  129. Bit rate : 73 b/s
  130. Count of elements : 850
  131. Stream size : 27.8 KiB (0%)
  132. Language : Danish
  133. Default : No
  134. Forced : No

  135. Text #8
  136. ID : 10
  137. Format : UTF-8
  138. Codec ID : S_TEXT/UTF8
  139. Codec ID/Info : UTF-8 Plain Text
  140. Duration : 51 min 36 s
  141. Bit rate : 78 b/s
  142. Count of elements : 810
  143. Stream size : 29.7 KiB (0%)
  144. Language : Dutch
  145. Default : No
  146. Forced : No

  147. Text #9
  148. ID : 11
  149. Format : UTF-8
  150. Codec ID : S_TEXT/UTF8
  151. Codec ID/Info : UTF-8 Plain Text
  152. Duration : 51 min 36 s
  153. Bit rate : 75 b/s
  154. Count of elements : 734
  155. Stream size : 28.6 KiB (0%)
  156. Language : Estonian
  157. Default : No
  158. Forced : No

  159. Text #10
  160. ID : 12
  161. Format : UTF-8
  162. Codec ID : S_TEXT/UTF8
  163. Codec ID/Info : UTF-8 Plain Text
  164. Duration : 51 min 36 s
  165. Bit rate : 85 b/s
  166. Count of elements : 878
  167. Stream size : 32.4 KiB (0%)
  168. Language : Finnish
  169. Default : No
  170. Forced : No

  171. Text #11
  172. ID : 13
  173. Format : UTF-8
  174. Codec ID : S_TEXT/UTF8
  175. Codec ID/Info : UTF-8 Plain Text
  176. Duration : 51 min 39 s
  177. Bit rate : 81 b/s
  178. Count of elements : 876
  179. Stream size : 30.8 KiB (0%)
  180. Title : French (Canada)
  181. Language : French
  182. Default : No
  183. Forced : No

  184. Text #12
  185. ID : 14
  186. Format : UTF-8
  187. Codec ID : S_TEXT/UTF8
  188. Codec ID/Info : UTF-8 Plain Text
  189. Duration : 51 min 36 s
  190. Bit rate : 81 b/s
  191. Count of elements : 875
  192. Stream size : 30.8 KiB (0%)
  193. Title : French (France)
  194. Language : French
  195. Default : No
  196. Forced : No

  197. Text #13
  198. ID : 15
  199. Format : UTF-8
  200. Codec ID : S_TEXT/UTF8
  201. Codec ID/Info : UTF-8 Plain Text
  202. Duration : 51 min 36 s
  203. Bit rate : 84 b/s
  204. Count of elements : 873
  205. Stream size : 31.9 KiB (0%)
  206. Language : German
  207. Default : No
  208. Forced : No

  209. Text #14
  210. ID : 16
  211. Format : UTF-8
  212. Codec ID : S_TEXT/UTF8
  213. Codec ID/Info : UTF-8 Plain Text
  214. Duration : 51 min 36 s
  215. Bit rate : 142 b/s
  216. Count of elements : 867
  217. Stream size : 53.7 KiB (0%)
  218. Language : Greek
  219. Default : No
  220. Forced : No

  221. Text #15
  222. ID : 17
  223. Format : UTF-8
  224. Codec ID : S_TEXT/UTF8
  225. Codec ID/Info : UTF-8 Plain Text
  226. Duration : 51 min 36 s
  227. Bit rate : 109 b/s
  228. Count of elements : 887
  229. Stream size : 41.3 KiB (0%)
  230. Language : Hebrew
  231. Default : No
  232. Forced : No

  233. Text #16
  234. ID : 18
  235. Format : UTF-8
  236. Codec ID : S_TEXT/UTF8
  237. Codec ID/Info : UTF-8 Plain Text
  238. Duration : 51 min 39 s
  239. Bit rate : 213 b/s
  240. Count of elements : 888
  241. Stream size : 80.7 KiB (0%)
  242. Language : Hindi
  243. Default : No
  244. Forced : No

  245. Text #17
  246. ID : 19
  247. Format : UTF-8
  248. Codec ID : S_TEXT/UTF8
  249. Codec ID/Info : UTF-8 Plain Text
  250. Duration : 51 min 39 s
  251. Bit rate : 85 b/s
  252. Count of elements : 853
  253. Stream size : 32.3 KiB (0%)
  254. Language : Hungarian
  255. Default : No
  256. Forced : No

  257. Text #18
  258. ID : 20
  259. Format : UTF-8
  260. Codec ID : S_TEXT/UTF8
  261. Codec ID/Info : UTF-8 Plain Text
  262. Duration : 51 min 36 s
  263. Bit rate : 82 b/s
  264. Count of elements : 867
  265. Stream size : 31.0 KiB (0%)
  266. Language : Indonesian
  267. Default : No
  268. Forced : No

  269. Text #19
  270. ID : 21
  271. Format : UTF-8
  272. Codec ID : S_TEXT/UTF8
  273. Codec ID/Info : UTF-8 Plain Text
  274. Duration : 51 min 39 s
  275. Bit rate : 80 b/s
  276. Count of elements : 872
  277. Stream size : 30.6 KiB (0%)
  278. Language : Italian
  279. Default : No
  280. Forced : No

  281. Text #20
  282. ID : 22
  283. Format : UTF-8
  284. Codec ID : S_TEXT/UTF8
  285. Codec ID/Info : UTF-8 Plain Text
  286. Duration : 51 min 38 s
  287. Bit rate : 67 b/s
  288. Count of elements : 847
  289. Stream size : 25.4 KiB (0%)
  290. Language : Japanese
  291. Default : No
  292. Forced : No

  293. Text #21
  294. ID : 23
  295. Format : UTF-8
  296. Codec ID : S_TEXT/UTF8
  297. Codec ID/Info : UTF-8 Plain Text
  298. Duration : 51 min 39 s
  299. Bit rate : 86 b/s
  300. Count of elements : 888
  301. Stream size : 32.8 KiB (0%)
  302. Language : Korean
  303. Default : No
  304. Forced : No

  305. Text #22
  306. ID : 24
  307. Format : UTF-8
  308. Codec ID : S_TEXT/UTF8
  309. Codec ID/Info : UTF-8 Plain Text
  310. Duration : 52 min 10 s
  311. Bit rate : 88 b/s
  312. Count of elements : 886
  313. Stream size : 34.0 KiB (0%)
  314. Language : Latvian
  315. Default : No
  316. Forced : No

  317. Text #23
  318. ID : 25
  319. Format : UTF-8
  320. Codec ID : S_TEXT/UTF8
  321. Codec ID/Info : UTF-8 Plain Text
  322. Duration : 51 min 36 s
  323. Bit rate : 86 b/s
  324. Count of elements : 883
  325. Stream size : 32.5 KiB (0%)
  326. Language : Lithuanian
  327. Default : No
  328. Forced : No

  329. Text #24
  330. ID : 26
  331. Format : UTF-8
  332. Codec ID : S_TEXT/UTF8
  333. Codec ID/Info : UTF-8 Plain Text
  334. Duration : 51 min 36 s
  335. Bit rate : 88 b/s
  336. Count of elements : 866
  337. Stream size : 33.4 KiB (0%)
  338. Language : Malay
  339. Default : No
  340. Forced : No

  341. Text #25
  342. ID : 27
  343. Format : UTF-8
  344. Codec ID : S_TEXT/UTF8
  345. Codec ID/Info : UTF-8 Plain Text
  346. Duration : 51 min 36 s
  347. Bit rate : 80 b/s
  348. Count of elements : 857
  349. Stream size : 30.4 KiB (0%)
  350. Language : Norwegian
  351. Default : No
  352. Forced : No

  353. Text #26
  354. ID : 28
  355. Format : UTF-8
  356. Codec ID : S_TEXT/UTF8
  357. Codec ID/Info : UTF-8 Plain Text
  358. Duration : 51 min 39 s
  359. Bit rate : 77 b/s
  360. Count of elements : 818
  361. Stream size : 29.3 KiB (0%)
  362. Language : Polish
  363. Default : No
  364. Forced : No

  365. Text #27
  366. ID : 29
  367. Format : UTF-8
  368. Codec ID : S_TEXT/UTF8
  369. Codec ID/Info : UTF-8 Plain Text
  370. Duration : 51 min 36 s
  371. Bit rate : 78 b/s
  372. Count of elements : 835
  373. Stream size : 29.7 KiB (0%)
  374. Language : Portuguese
  375. Default : No
  376. Forced : No

  377. Text #28
  378. ID : 30
  379. Format : UTF-8
  380. Codec ID : S_TEXT/UTF8
  381. Codec ID/Info : UTF-8 Plain Text
  382. Duration : 51 min 36 s
  383. Bit rate : 78 b/s
  384. Count of elements : 760
  385. Stream size : 29.8 KiB (0%)
  386. Title : Portuguese (Brazil)
  387. Language : Breton
  388. Default : No
  389. Forced : No

  390. Text #29
  391. ID : 31
  392. Format : UTF-8
  393. Codec ID : S_TEXT/UTF8
  394. Codec ID/Info : UTF-8 Plain Text
  395. Duration : 51 min 39 s
  396. Bit rate : 132 b/s
  397. Count of elements : 887
  398. Stream size : 50.3 KiB (0%)
  399. Language : Russian
  400. Default : No
  401. Forced : No

  402. Text #30
  403. ID : 32
  404. Format : UTF-8
  405. Codec ID : S_TEXT/UTF8
  406. Codec ID/Info : UTF-8 Plain Text
  407. Duration : 51 min 36 s
  408. Bit rate : 75 b/s
  409. Count of elements : 852
  410. Stream size : 28.7 KiB (0%)
  411. Language : Slovak
  412. Default : No
  413. Forced : No

  414. Text #31
  415. ID : 33
  416. Format : UTF-8
  417. Codec ID : S_TEXT/UTF8
  418. Codec ID/Info : UTF-8 Plain Text
  419. Duration : 51 min 36 s
  420. Bit rate : 69 b/s
  421. Count of elements : 838
  422. Stream size : 26.2 KiB (0%)
  423. Language : Slovenian
  424. Default : No
  425. Forced : No

  426. Text #32
  427. ID : 34
  428. Format : UTF-8
  429. Codec ID : S_TEXT/UTF8
  430. Codec ID/Info : UTF-8 Plain Text
  431. Duration : 51 min 39 s
  432. Bit rate : 78 b/s
  433. Count of elements : 830
  434. Stream size : 29.7 KiB (0%)
  435. Title : Spanish (Latin America)
  436. Language : Spanish
  437. Default : No
  438. Forced : No

  439. Text #33
  440. ID : 35
  441. Format : UTF-8
  442. Codec ID : S_TEXT/UTF8
  443. Codec ID/Info : UTF-8 Plain Text
  444. Duration : 51 min 39 s
  445. Bit rate : 75 b/s
  446. Count of elements : 790
  447. Stream size : 28.5 KiB (0%)
  448. Title : Spanish (Spain)
  449. Language : Spanish
  450. Default : No
  451. Forced : No

  452. Text #34
  453. ID : 36
  454. Format : UTF-8
  455. Codec ID : S_TEXT/UTF8
  456. Codec ID/Info : UTF-8 Plain Text
  457. Duration : 51 min 36 s
  458. Bit rate : 82 b/s
  459. Count of elements : 867
  460. Stream size : 31.2 KiB (0%)
  461. Language : Swedish
  462. Default : No
  463. Forced : No

  464. Text #35
  465. ID : 37
  466. Format : UTF-8
  467. Codec ID : S_TEXT/UTF8
  468. Codec ID/Info : UTF-8 Plain Text
  469. Duration : 51 min 36 s
  470. Bit rate : 267 b/s
  471. Count of elements : 887
  472. Stream size : 101 KiB (0%)
  473. Language : Tamil
  474. Default : No
  475. Forced : No

  476. Text #36
  477. ID : 38
  478. Format : UTF-8
  479. Codec ID : S_TEXT/UTF8
  480. Codec ID/Info : UTF-8 Plain Text
  481. Duration : 51 min 36 s
  482. Bit rate : 229 b/s
  483. Count of elements : 887
  484. Stream size : 86.6 KiB (0%)
  485. Language : Telugu
  486. Default : No
  487. Forced : No

  488. Text #37
  489. ID : 39
  490. Format : UTF-8
  491. Codec ID : S_TEXT/UTF8
  492. Codec ID/Info : UTF-8 Plain Text
  493. Duration : 50 min 39 s
  494. Bit rate : 169 b/s
  495. Count of elements : 886
  496. Stream size : 62.8 KiB (0%)
  497. Language : Thai
  498. Default : No
  499. Forced : No

  500. Text #38
  501. ID : 40
  502. Format : UTF-8
  503. Codec ID : S_TEXT/UTF8
  504. Codec ID/Info : UTF-8 Plain Text
  505. Duration : 51 min 36 s
  506. Bit rate : 82 b/s
  507. Count of elements : 883
  508. Stream size : 31.2 KiB (0%)
  509. Language : Turkish
  510. Default : No
  511. Forced : No

  512. Text #39
  513. ID : 41
  514. Format : UTF-8
  515. Codec ID : S_TEXT/UTF8
  516. Codec ID/Info : UTF-8 Plain Text
  517. Duration : 51 min 39 s
  518. Bit rate : 125 b/s
  519. Count of elements : 888
  520. Stream size : 47.5 KiB (0%)
  521. Language : Ukrainian
  522. Default : No
  523. Forced : No

  524. Text #40
  525. ID : 42
  526. Format : UTF-8
  527. Codec ID : S_TEXT/UTF8
  528. Codec ID/Info : UTF-8 Plain Text
  529. Duration : 51 min 39 s
  530. Bit rate : 111 b/s
  531. Count of elements : 868
  532. Stream size : 42.0 KiB (0%)
  533. Language : Vietnamese
  534. Default : No
  535. Forced : No
复制代码

长路再续 / 长路遥遥/一路北上4k Long.Way.Up.S01.2160p.ATVP.WEB-DL.DDP5.1.Atmos.x265美剧下载

一路北上4k Long.Way.Up.S01.2160p.ATVP.WEB-DL.x265.10bit.HDR.DDP5.1.Atmos【90.54 GB】
[Hao4k]一路北上4k Long.Way.Up.S01.2160p.ATVP.WEB-DL.x265.10bit.HDR.DDP5.1.Atmos-.torrent
(227.68 KB)
回复

使用道具 举报

发烧友评论4

倒序浏览
5555pmn 发表于 前天 10:58 | 显示全部楼层
感谢分享!!好看吗?
回复 支持 反对

使用道具 举报

hetuen 发表于 5 天前 | 显示全部楼层
感谢分享!!感谢分享!!感谢分享!!感谢分享!!
回复 支持 反对

使用道具 举报

您需要登录后才可以回帖 登录 | 立即注册

本版积分规则

在线客服

在线客服

服务时间 9:00—18:00

返回顶部

关注微信公众号第一时间推送精彩

官方微信

手机访问

Hao4K影音

专注4k家庭影音,提供家庭影音社区,家庭影音器材库,影音问答平台,影音商城,服务千万家庭影音用户。

本站内容部分由用户自主分享和转载自互联网,转载目的在于传递更多信息,并不代表本网赞同其观点和对其真实性负责。

如有侵权、违反国家法律政策行为,请联系我们,我们会第一时间及时清除和处理!

举报反馈邮箱:admin@hao4k.cn

Copyright  2019-2020  Hao4K影音粤公网安备 44030302001429号    ( 粤ICP备18155646号-1 )|网站地图