微博 微信

Hao4K影音

[美剧] 荒野4k The.Wilds.S01.2160p.美剧下载

2021-1-4 21:17:40 29983 3 |只看大图 回帖奖励 |倒序浏览 |阅读模式

大红色 楼主

2020-12-14 11:01:09

电视剧频道
电视剧封面:
电视剧名: 荒野4k
年  代: 2020  
国  家: 美国
类  别: 剧情 
语  言: 英语
字  幕: 英文原版
上映日期: 2020-12-11
文件格式: mkv    
视频效果: 4K(3840x2160)    
资源大小: 55.23 GB
片  长: -
导  演: 苏珊娜·福格尔
剧情简介: 亚马逊预订三部青少题材剧集,分别为《大学》(College,暂译)、《恐慌》(Panic,暂译)、《荒野》(The Wilds,暂译)。《大学》由马里加·路易斯·瑞恩([四角恋])打造,监制查宁·塔图姆、吉尔·索洛韦(《透明家庭》),围绕六个大学室友之间的故事展开;《恐慌》改编自劳伦·奥利佛([忽然七日])撰写的同名畅销小说,故事聚焦偏远小镇上数十个毕业生参加的一场危险游戏;《荒野》讲述一群身处荒岛的女孩发现她们成为了某个社会实验的试验品。
荒野4k The.Wilds.S01.2160p.AMZN.WEB-DL.x265.10bit.HDR10plus.DDP5.1美剧信息
  1. Video
  2. ID : 1
  3. Format : HEVC
  4. Format/Info : High Efficiency Video Coding
  5. Format profile : Main 10@L5@Main
  6. HDR format : SMPTE ST 2094 App 4, Version 1, HDR10+ Profile B compatible
  7. Codec ID : V_MPEGH/ISO/HEVC
  8. Duration : 1 h 1 min
  9. Bit rate : 14.5 Mb/s
  10. Width : 3 840 pixels
  11. Height : 2 160 pixels
  12. Display aspect ratio : 16:9
  13. Frame rate mode : Constant
  14. Frame rate : 23.976 (24000/1001) FPS
  15. Color space : YUV
  16. Chroma subsampling : 4:2:0
  17. Bit depth : 10 bits
  18. Bits/(Pixel*Frame) : 0.073
  19. Stream size : 6.28 GiB (96%)
  20. Default : Yes
  21. Forced : No
  22. Color range : Limited
  23. Color primaries : BT.2020
  24. Transfer characteristics : PQ
  25. Matrix coefficients : BT.2020 non-constant
  26. Mastering display color primaries : Display P3
  27. Mastering display luminance : min: 0.0001 cd/m2, max: 1000 cd/m2
  28. Maximum Content Light Level : 433 cd/m2
  29. Maximum Frame-Average Light Level : 147 cd/m2

  30. Audio
  31. ID : 2
  32. Format : E-AC-3
  33. Format/Info : Enhanced AC-3
  34. Commercial name : Dolby Digital Plus
  35. Codec ID : A_EAC3
  36. Duration : 1 h 1 min
  37. Bit rate mode : Constant
  38. Bit rate : 640 kb/s
  39. Channel(s) : 6 channels
  40. Channel layout : L R C LFE Ls Rs
  41. Sampling rate : 48.0 kHz
  42. Frame rate : 31.250 FPS (1536 SPF)
  43. Compression mode : Lossy
  44. Stream size : 283 MiB (4%)
  45. Language : English
  46. Service kind : Complete Main
  47. Default : Yes
  48. Forced : No

  49. Text #1
  50. ID : 3
  51. Format : UTF-8
  52. Codec ID : S_TEXT/UTF8
  53. Codec ID/Info : UTF-8 Plain Text
  54. Duration : 1 h 1 min
  55. Bit rate : 78 b/s
  56. Count of elements : 687
  57. Stream size : 35.5 KiB (0%)
  58. Language : Arabic
  59. Default : No
  60. Forced : No

  61. Text #2
  62. ID : 4
  63. Format : UTF-8
  64. Codec ID : S_TEXT/UTF8
  65. Codec ID/Info : UTF-8 Plain Text
  66. Duration : 1 h 1 min
  67. Bit rate : 45 b/s
  68. Count of elements : 684
  69. Stream size : 20.4 KiB (0%)
  70. Language : Danish
  71. Default : No
  72. Forced : No

  73. Text #3
  74. ID : 5
  75. Format : UTF-8
  76. Codec ID : S_TEXT/UTF8
  77. Codec ID/Info : UTF-8 Plain Text
  78. Duration : 1 h 1 min
  79. Bit rate : 51 b/s
  80. Count of elements : 681
  81. Stream size : 22.9 KiB (0%)
  82. Language : German
  83. Default : No
  84. Forced : No

  85. Text #4
  86. ID : 6
  87. Format : UTF-8
  88. Codec ID : S_TEXT/UTF8
  89. Codec ID/Info : UTF-8 Plain Text
  90. Duration : 1 h 1 min
  91. Bit rate : 61 b/s
  92. Count of elements : 1121
  93. Stream size : 27.8 KiB (0%)
  94. Title : (SDH)
  95. Language : English
  96. Default : No
  97. Forced : No

  98. Text #5
  99. ID : 7
  100. Format : UTF-8
  101. Codec ID : S_TEXT/UTF8
  102. Codec ID/Info : UTF-8 Plain Text
  103. Duration : 1 h 1 min
  104. Bit rate : 44 b/s
  105. Count of elements : 681
  106. Stream size : 20.2 KiB (0%)
  107. Language : fil
  108. Default : No
  109. Forced : No

  110. Text #6
  111. ID : 8
  112. Format : UTF-8
  113. Codec ID : S_TEXT/UTF8
  114. Codec ID/Info : UTF-8 Plain Text
  115. Duration : 1 h 1 min
  116. Bit rate : 45 b/s
  117. Count of elements : 681
  118. Stream size : 20.5 KiB (0%)
  119. Language : Finnish
  120. Default : No
  121. Forced : No

  122. Text #7
  123. ID : 9
  124. Format : UTF-8
  125. Codec ID : S_TEXT/UTF8
  126. Codec ID/Info : UTF-8 Plain Text
  127. Duration : 1 h 1 min
  128. Bit rate : 47 b/s
  129. Count of elements : 678
  130. Stream size : 21.5 KiB (0%)
  131. Language : French
  132. Default : No
  133. Forced : No

  134. Text #8
  135. ID : 10
  136. Format : UTF-8
  137. Codec ID : S_TEXT/UTF8
  138. Codec ID/Info : UTF-8 Plain Text
  139. Duration : 1 h 1 min
  140. Bit rate : 76 b/s
  141. Count of elements : 687
  142. Stream size : 34.5 KiB (0%)
  143. Language : Hebrew
  144. Default : No
  145. Forced : No

  146. Text #9
  147. ID : 11
  148. Format : UTF-8
  149. Codec ID : S_TEXT/UTF8
  150. Codec ID/Info : UTF-8 Plain Text
  151. Duration : 1 h 1 min
  152. Bit rate : 123 b/s
  153. Count of elements : 687
  154. Stream size : 55.5 KiB (0%)
  155. Language : Hindi
  156. Default : No
  157. Forced : No

  158. Text #10
  159. ID : 12
  160. Format : UTF-8
  161. Codec ID : S_TEXT/UTF8
  162. Codec ID/Info : UTF-8 Plain Text
  163. Duration : 1 h 1 min
  164. Bit rate : 43 b/s
  165. Count of elements : 674
  166. Stream size : 19.7 KiB (0%)
  167. Language : Indonesian
  168. Default : No
  169. Forced : No

  170. Text #11
  171. ID : 13
  172. Format : UTF-8
  173. Codec ID : S_TEXT/UTF8
  174. Codec ID/Info : UTF-8 Plain Text
  175. Duration : 1 h 1 min
  176. Bit rate : 43 b/s
  177. Count of elements : 679
  178. Stream size : 19.7 KiB (0%)
  179. Language : Italian
  180. Default : No
  181. Forced : No

  182. Text #12
  183. ID : 14
  184. Format : UTF-8
  185. Codec ID : S_TEXT/UTF8
  186. Codec ID/Info : UTF-8 Plain Text
  187. Duration : 1 h 1 min
  188. Bit rate : 48 b/s
  189. Count of elements : 670
  190. Stream size : 21.7 KiB (0%)
  191. Language : Japanese
  192. Default : No
  193. Forced : No

  194. Text #13
  195. ID : 15
  196. Format : UTF-8
  197. Codec ID : S_TEXT/UTF8
  198. Codec ID/Info : UTF-8 Plain Text
  199. Duration : 1 h 1 min
  200. Bit rate : 56 b/s
  201. Count of elements : 687
  202. Stream size : 25.6 KiB (0%)
  203. Language : Korean
  204. Default : No
  205. Forced : No

  206. Text #14
  207. ID : 16
  208. Format : UTF-8
  209. Codec ID : S_TEXT/UTF8
  210. Codec ID/Info : UTF-8 Plain Text
  211. Duration : 1 h 1 min
  212. Bit rate : 45 b/s
  213. Count of elements : 684
  214. Stream size : 20.6 KiB (0%)
  215. Language : Dutch
  216. Default : No
  217. Forced : No

  218. Text #15
  219. ID : 17
  220. Format : UTF-8
  221. Codec ID : S_TEXT/UTF8
  222. Codec ID/Info : UTF-8 Plain Text
  223. Duration : 1 h 1 min
  224. Bit rate : 45 b/s
  225. Count of elements : 685
  226. Stream size : 20.6 KiB (0%)
  227. Language : Norwegian Bokmal
  228. Default : No
  229. Forced : No

  230. Text #16
  231. ID : 18
  232. Format : UTF-8
  233. Codec ID : S_TEXT/UTF8
  234. Codec ID/Info : UTF-8 Plain Text
  235. Duration : 1 h 1 min
  236. Bit rate : 44 b/s
  237. Count of elements : 674
  238. Stream size : 19.9 KiB (0%)
  239. Language : Polish
  240. Default : No
  241. Forced : No

  242. Text #17
  243. ID : 19
  244. Format : UTF-8
  245. Codec ID : S_TEXT/UTF8
  246. Codec ID/Info : UTF-8 Plain Text
  247. Duration : 1 h 1 min
  248. Bit rate : 45 b/s
  249. Count of elements : 685
  250. Stream size : 20.6 KiB (0%)
  251. Language : Portuguese
  252. Default : No
  253. Forced : No

  254. Text #18
  255. ID : 20
  256. Format : UTF-8
  257. Codec ID : S_TEXT/UTF8
  258. Codec ID/Info : UTF-8 Plain Text
  259. Duration : 1 h 1 min
  260. Bit rate : 72 b/s
  261. Count of elements : 687
  262. Stream size : 32.7 KiB (0%)
  263. Language : Russian
  264. Default : No
  265. Forced : No

  266. Text #19
  267. ID : 21
  268. Format : UTF-8
  269. Codec ID : S_TEXT/UTF8
  270. Codec ID/Info : UTF-8 Plain Text
  271. Duration : 1 h 1 min
  272. Bit rate : 46 b/s
  273. Count of elements : 686
  274. Stream size : 20.8 KiB (0%)
  275. Language : Spanish
  276. Default : No
  277. Forced : No

  278. Text #20
  279. ID : 22
  280. Format : UTF-8
  281. Codec ID : S_TEXT/UTF8
  282. Codec ID/Info : UTF-8 Plain Text
  283. Duration : 1 h 1 min
  284. Bit rate : 48 b/s
  285. Count of elements : 683
  286. Stream size : 21.8 KiB (0%)
  287. Language : Swedish
  288. Default : No
  289. Forced : No

  290. Text #21
  291. ID : 23
  292. Format : UTF-8
  293. Codec ID : S_TEXT/UTF8
  294. Codec ID/Info : UTF-8 Plain Text
  295. Duration : 1 h 1 min
  296. Bit rate : 128 b/s
  297. Count of elements : 687
  298. Stream size : 57.7 KiB (0%)
  299. Language : Tamil
  300. Default : No
  301. Forced : No

  302. Text #22
  303. ID : 24
  304. Format : UTF-8
  305. Codec ID : S_TEXT/UTF8
  306. Codec ID/Info : UTF-8 Plain Text
  307. Duration : 1 h 1 min
  308. Bit rate : 127 b/s
  309. Count of elements : 684
  310. Stream size : 57.1 KiB (0%)
  311. Language : Telugu
  312. Default : No
  313. Forced : No

  314. Text #23
  315. ID : 25
  316. Format : UTF-8
  317. Codec ID : S_TEXT/UTF8
  318. Codec ID/Info : UTF-8 Plain Text
  319. Duration : 1 h 1 min
  320. Bit rate : 117 b/s
  321. Count of elements : 687
  322. Stream size : 52.6 KiB (0%)
  323. Language : Thai
  324. Default : No
  325. Forced : No

  326. Text #24
  327. ID : 26
  328. Format : UTF-8
  329. Codec ID : S_TEXT/UTF8
  330. Codec ID/Info : UTF-8 Plain Text
  331. Duration : 1 h 1 min
  332. Bit rate : 46 b/s
  333. Count of elements : 686
  334. Stream size : 20.7 KiB (0%)
  335. Language : Turkish
  336. Default : No
  337. Forced : No

  338. Text #25
  339. ID : 27
  340. Format : UTF-8
  341. Codec ID : S_TEXT/UTF8
  342. Codec ID/Info : UTF-8 Plain Text
  343. Duration : 1 h 1 min
  344. Bit rate : 42 b/s
  345. Count of elements : 687
  346. Stream size : 19.0 KiB (0%)
  347. Language : Chinese
  348. Default : No
  349. Forced : No
复制代码

荒野4k The.Wilds.S01.2160p.AMZN.WEB-DL.x265.10bit.HDR10plus.DDP5.1美剧下载

荒野4k The.Wilds.S01.2160p.AMZN.WEB-DL.x265.10bit.HDR10plus.DDP5.1【55.23 GB】
[Hao4k]荒野4k The.Wilds.S01.2160p.AMZN.WEB-DL.x265.10bit.HDR10plus.DDP5.1-ROCCaT.torrent (139.41 KB)
回复

使用道具 举报

全部回复3

opkqq00 发表于 2020-12-31 18:08:29

opkqq00 沙发

2020-12-31 18:08:29


好资源,感谢楼主无私分享。
回复 支持 反对

使用道具 举报

RUNE 发表于 2021-1-4 18:12:13

RUNE 板凳

2021-1-4 18:12:13



好资源,感谢楼主无私分享。
回复 支持 反对

使用道具 举报

special0428 发表于 2021-1-4 21:17:40

special0428 地板

2021-1-4 21:17:40

好资源,感谢楼主无私分享。
回复 支持 反对

使用道具 举报

发表回复

您需要登录后才可以回帖 登录 | 立即注册

返回列表 本版积分规则

:
白银玩家
:
未填写

主题

帖子

积分925

图文推荐

  • 芝杜z9x播放4K电影画面发灰不通透

    显示设置里的HDR设置,设为自动反而不如强制LLDV

  • 关于收藏《4KUHD蓝光原盘》还是《4KUHD蓝光

    《4K UHD 蓝光原盘》 优点:有导航菜单和电影幕后

  • SZC只发精品:已上传《头号玩家.60FPS.True

    弘扬互联网精神不收费不爱4K独爱60帧 不喜勿下,

  • 即将发布:夺宝奇兵2之魔宫传奇4K UHD蓝光

    最新消息:夺宝奇兵系列第二部《夺宝奇兵2》将重

  • 【求助】刚下的姜子牙播放时花屏

    如题 请问是片源问题还是我没设置好 谢谢

  • 在线客服

  • 返回顶部