微博 微信

Hao4K影音

[7.1声道] 加勒比海盗1-5全集 dubious 5.1 DTS-HD 7.1国配音效音轨 特效字 5.27GB

前天 09:02 15194 10 |只看大图 回帖奖励 |倒序浏览 |阅读模式

wangawa 楼主

2020-12-16 11:01:04

【国语全集】]加勒比海盗1-5全集 dubious 5.1   DTS-HD 7.1 国配音效音轨  国配特效字幕 5.72GB 推荐洗版收藏
导演: 戈尔·维宾斯基
编剧: 泰德·艾略特 / 特里·鲁西奥 / 斯图尔特·贝亚蒂耶 / 杰·沃尔伯特
主演: 约翰尼·德普 / 杰弗里·拉什 / 奥兰多·布鲁姆 / 凯拉·奈特莉 / 杰克·达文波特 /
制片国家/地区: 美国
语言: 英语
加勒比海盗 Pirates of the Caribbean: The Curse of the Black Pearl (2003)
加勒比海盗2:聚魂棺 Pirates of the Caribbean: Dead Man's Chest (2006)
加勒比海盗3:世界的尽头 Pirates of the Caribbean: At World's End (2007)
加勒比海盗4:惊涛怪浪 Pirates of the Caribbean: On Stranger Tides (2011)
加勒比海盗5:死无对证 Pirates of the Caribbean: Dead Men Tell No Tales (2017)
  1. General
  2. Unique ID                      : 54320328095245444309627444424832292795 (0x28DDB6F3170290CF077AEF6FA0A197BB)
  3. Complete name                  : D:\音轨\加勒比海盗\05.加勒比海盗5.死无对证.2017.ULTRAHD.Blu-ray.2160p.HEVC.TrueHD.7.1.mka
  4. Format                         : Matroska
  5. Format version                 : Version 4
  6. File size                      : 3.26 GiB
  7. Duration                       : 2 h 9 min
  8. Overall bit rate mode          : Variable
  9. Overall bit rate               : 3 619 kb/s
  10. Encoded date                   : UTC 2020-12-15 05:37:34
  11. Writing application            : mkvmerge v28.0.0 ('Voice In My Head') 64-bit
  12. Writing library                : libebml v1.3.6 + libmatroska v1.4.9


  13. Audio #1
  14. ID                             : 1
  15. Format                         : DTS XLL
  16. Format/Info                    : Digital Theater Systems
  17. Commercial name                : DTS-HD Master Audio
  18. Codec ID                       : A_DTS
  19. Duration                       : 2 h 9 min
  20. Bit rate mode                  : Variable
  21. Bit rate                       : 2 805 kb/s
  22. Channel(s)                     : 8 channels
  23. Channel layout                 : C L R LFE Lb Rb Lss Rss
  24. Sampling rate                  : 48.0 kHz
  25. Frame rate                     : 93.750 FPS (512 SPF)
  26. Bit depth                      : 16 bits
  27. Compression mode               : Lossless
  28. Stream size                    : 2.53 GiB (78%)
  29. Language                       : Chinese
  30. Default                        : Yes
  31. Forced                         : No


  32. Audio #2
  33. ID                             : 2
  34. Format                         : AC-3
  35. Format/Info                    : Audio Coding 3
  36. Commercial name                : Dolby Digital
  37. Codec ID                       : A_AC3
  38. Duration                       : 2 h 9 min
  39. Bit rate mode                  : Constant
  40. Bit rate                       : 640 kb/s
  41. Channel(s)                     : 6 channels
  42. Channel layout                 : L R C LFE Ls Rs
  43. Sampling rate                  : 48.0 kHz
  44. Frame rate                     : 31.250 FPS (1536 SPF)
  45. Compression mode               : Lossy
  46. Stream size                    : 591 MiB (18%)
  47. Language                       : Chinese
  48. Service kind                   : Complete Main
  49. Default                        : No
  50. Forced                         : No


  51. Text #1
  52. ID                             : 3
  53. Format                         : PGS
  54. Muxing mode                    : zlib
  55. Codec ID                       : S_HDMV/PGS
  56. Codec ID/Info                  : Picture based subtitle format used on BDs/HD-DVDs
  57. Duration                       : 2 h 8 min
  58. Bit rate                       : 50.0 kb/s
  59. Count of elements              : 5621
  60. Stream size                    : 46.0 MiB (1%)
  61. Language                       : Chinese
  62. Default                        : Yes
  63. Forced                         : No


  64. Text #2
  65. ID                             : 4
  66. Format                         : PGS
  67. Muxing mode                    : zlib
  68. Codec ID                       : S_HDMV/PGS
  69. Codec ID/Info                  : Picture based subtitle format used on BDs/HD-DVDs
  70. Duration                       : 2 h 8 min
  71. Bit rate                       : 50.6 kb/s
  72. Count of elements              : 5621
  73. Stream size                    : 46.5 MiB (1%)
  74. Language                       : Chinese
  75. Default                        : No
  76. Forced                         : No


  77. Text #3
  78. ID                             : 5
  79. Format                         : PGS
  80. Muxing mode                    : zlib
  81. Codec ID                       : S_HDMV/PGS
  82. Codec ID/Info                  : Picture based subtitle format used on BDs/HD-DVDs
  83. Duration                       : 1 h 59 min
  84. Bit rate                       : 16.8 kb/s
  85. Count of elements              : 2646
  86. Stream size                    : 14.3 MiB (0%)
  87. Language                       : Chinese
  88. Default                        : No
  89. Forced                         : No


  90. Text #4
  91. ID                             : 6
  92. Format                         : PGS
  93. Muxing mode                    : zlib
  94. Codec ID                       : S_HDMV/PGS
  95. Codec ID/Info                  : Picture based subtitle format used on BDs/HD-DVDs
  96. Duration                       : 2 h 8 min
  97. Bit rate                       : 64.0 kb/s
  98. Count of elements              : 5621
  99. Stream size                    : 58.9 MiB (2%)
  100. Language                       : Chinese
  101. Default                        : No
  102. Forced                         : No


  103. Text #5
  104. ID                             : 7
  105. Format                         : PGS
  106. Muxing mode                    : zlib
  107. Codec ID                       : S_HDMV/PGS
  108. Codec ID/Info                  : Picture based subtitle format used on BDs/HD-DVDs
  109. Duration                       : 1 h 59 min
  110. Bit rate                       : 19.4 kb/s
  111. Count of elements              : 2738
  112. Stream size                    : 16.5 MiB (0%)
  113. Language                       : Chinese
  114. Default                        : No
  115. Forced                         : No


  116. Text #6
  117. ID                             : 8
  118. Format                         : PGS
  119. Muxing mode                    : zlib
  120. Codec ID                       : S_HDMV/PGS
  121. Codec ID/Info                  : Picture based subtitle format used on BDs/HD-DVDs
  122. Duration                       : 2 h 8 min
  123. Bit rate                       : 64.6 kb/s
  124. Count of elements              : 5621
  125. Stream size                    : 59.4 MiB (2%)
  126. Language                       : Chinese
  127. Default                        : No
  128. Forced                         : No
复制代码
音频信息
音频编码:
  1. DTS(0x2001) - FFmpegMininum.dll(dca)
  2.   采样率: 48000 -> 48000 Hz
  3.   位率: 16 -> 16 位
  4.   声道数: 8 声道
  5.   Bitrate: 1509 kbps
复制代码
链接:https://pan.baidu.com/s/1Lx7BleohdLhcT7H4kr40BA
提取码: 提取码.txt (68 Bytes, 售价: 3 K币)
QQ图片20201217124302.png

评分

参与人数 1K币 +20 收起 理由
hao4k + 20 谢谢分享!感谢分享!

查看全部评分

回复

使用道具 举报

zhouyou421 发表于 2020-12-16 15:10:45

zhouyou421 推荐

2020-12-16 15:10:45

骗人的,是个网盘地址,里面一部电影只有几百M,还说什么DTS-HD 7.1,我要举报
回复 支持 0 反对 2

使用道具 举报

全部回复10

devihhy 发表于 2020-12-16 11:11:39

devihhy 沙发

2020-12-16 11:11:39

多谢分享,好资源!给个下载地址呗!
回复 支持 反对

使用道具 举报

zfq210851 发表于 2020-12-16 11:18:15

zfq210851 地板

2020-12-16 11:18:15

多谢分享,特别好的资源啊,加油。
回复 支持 反对

使用道具 举报

wangawa 发表于 2020-12-17 12:53:02

wangawa 6#

2020-12-17 12:53:02

zhouyou421 发表于 2020-12-16 15:10
骗人的,是个网盘地址,里面一部电影只有几百M,还说什么DTS-HD 7.1,我要举报

本人发的是音轨,里面根本没有电影,你不要胡说,你举报就是恶意诽谤。你没有购买,根本看不到里面是什么。不要在这里胡说。一马勺换一个的东西。hao4K挺好的网站就是你这样的人渣毁坏了,有本事发一些资源给大家分享。
你既然这样说我发的帖子,这个帖子我不要金币送给大家玩了。
但是你最好不要下载,你要是下载就是真不要脸了!
回复 支持 反对

使用道具 举报

xpwnp 发表于 2020-12-18 00:38:49 Hao4K手机版

xpwnp 7#

2020-12-18 00:38:49

wangawa 发表于 2020-12-17 12:53
本人发的是音轨,里面根本没有电影,你不要胡说,你举报就是恶意诽谤。你没有购买,根本看不到里面是什么 ...

楼主别急,他根本都不懂什么是音轨,跟他较什么真儿。
回复 支持 反对

使用道具 举报

chenjinyun 发表于 2020-12-22 03:20:42

chenjinyun 8#

2020-12-22 03:20:42

多谢分享,特别好的资源啊
回复 支持 反对

使用道具 举报

zhouyou421 发表于 2020-12-23 11:49:35

zhouyou421 9#

2020-12-23 11:49:35

wangawa 发表于 2020-12-17 12:53
本人发的是音轨,里面根本没有电影,你不要胡说,你举报就是恶意诽谤。你没有购买,根本看不到里面是什么 ...

OK,是我看错了,我道歉,对不起。
回复 支持 反对

使用道具 举报

secisiro 发表于 2020-12-23 12:06:52

secisiro 10#

2020-12-23 12:06:52

楼上千万要看清楚再回复
楼主我记得前几天就发布了的?为什么又发一次,和上次有什么不同?我需要重新购买下载吗?
回复 支持 反对

使用道具 举报

邪恶奥多姆 发表于 前天 09:02 Hao4K手机版

邪恶奥多姆 11#

前天 09:02

楼主请问下,我外挂音轨就合适,封装后嘴型就对不上了,有没有什么好办法调校呢
回复 支持 反对

使用道具 举报

发表回复

您需要登录后才可以回帖 登录 | 立即注册

返回列表 本版积分规则

:
青铜玩家
:
未填写

主题

帖子

积分102

图文推荐

  • 安桥5100功放魅视9702播放机全景声与图像问

    1.安桥5100功放 播放机魅视9702 投影是奥图码886

  • 一篇文章带你了解投影机0.47英寸芯片与0.66

    相信大家再挑选投影机时都会看投影机的芯片,目前

  • 杰科G5800详细内部构造拆机图[图多杀猫]

    今天抽空吧5800拆了,图放上来了,大家凑合看看吧

  • 关于收藏《4KUHD蓝光原盘》还是《4KUHD蓝光

    《4K UHD 蓝光原盘》 优点:有导航菜单和电影幕后

  • 实力曝光不为人知的hifi影音行业:从厂商、

    实力曝光不为人知的hifi影音行业:从厂商、媒体至

  • 在线客服

  • 返回顶部