微博 微信

Hao4K影音

[美剧] 苍穹浩瀚 第五季4k The.Expanse.S05E01.2160p.美剧下载

2020-12-28 10:32:37 86255 29 |只看大图 回帖奖励 |倒序浏览 |阅读模式

大红色 楼主

2020-12-16 21:52:45

电视剧频道
电视剧封面:
电视剧名: 苍穹浩瀚 第五季4k
年  代: 2020  
国  家: 美国
类  别: 动作 科幻 剧情 
语  言: 英语
字  幕: -
上映日期: 2020-12-16
文件格式: mkv    
视频效果: 4K(3840x2160)    
资源大小: 5.54 GB
片  长: -
导  演: 布瑞克·埃斯纳尔
剧情简介:  Amazon宣布续订《#无垠的太空# The Expanse》第五季!
无垠的太空 / 太空无垠 / 浩瀚天穹/苍穹浩瀚 第五季4k The.Expanse.S05E01.2160p.AMZN.WEB-DL.x265.10bit.HDR10plus.DDP5.1.美剧信息
  1. Video
  2. ID : 1
  3. Format : HEVC
  4. Format/Info : High Efficiency Video Coding
  5. Format profile : Main 10@L5@Main
  6. HDR format : SMPTE ST 2094 App 4, Version 1, HDR10+ Profile B compatible
  7. Codec ID : V_MPEGH/ISO/HEVC
  8. Duration : 51 min 40 s
  9. Bit rate : 14.7 Mb/s
  10. Width : 3 840 pixels
  11. Height : 2 160 pixels
  12. Display aspect ratio : 16:9
  13. Frame rate mode : Constant
  14. Frame rate : 23.976 (24000/1001) FPS
  15. Color space : YUV
  16. Chroma subsampling : 4:2:0
  17. Bit depth : 10 bits
  18. Bits/(Pixel*Frame) : 0.074
  19. Stream size : 5.31 GiB (96%)
  20. Default : Yes
  21. Forced : No
  22. Color range : Limited
  23. Color primaries : BT.2020
  24. Transfer characteristics : PQ
  25. Matrix coefficients : BT.2020 non-constant
  26. Mastering display color primaries : Display P3
  27. Mastering display luminance : min: 0.0001 cd/m2, max: 1000 cd/m2
  28. Maximum Content Light Level : 1004 cd/m2
  29. Maximum Frame-Average Light Level : 296 cd/m2

  30. Audio
  31. ID : 2
  32. Format : E-AC-3
  33. Format/Info : Enhanced AC-3
  34. Commercial name : Dolby Digital Plus
  35. Codec ID : A_EAC3
  36. Duration : 51 min 40 s
  37. Bit rate mode : Constant
  38. Bit rate : 640 kb/s
  39. Channel(s) : 6 channels
  40. Channel layout : L R C LFE Ls Rs
  41. Sampling rate : 48.0 kHz
  42. Frame rate : 31.250 FPS (1536 SPF)
  43. Compression mode : Lossy
  44. Stream size : 237 MiB (4%)
  45. Language : English
  46. Service kind : Complete Main
  47. Default : Yes
  48. Forced : No

  49. Text #1
  50. ID : 3
  51. Format : UTF-8
  52. Codec ID : S_TEXT/UTF8
  53. Codec ID/Info : UTF-8 Plain Text
  54. Duration : 51 min 25 s
  55. Bit rate : 95 b/s
  56. Count of elements : 649
  57. Stream size : 36.0 KiB (0%)
  58. Language : Arabic
  59. Default : No
  60. Forced : No

  61. Text #2
  62. ID : 4
  63. Format : UTF-8
  64. Codec ID : S_TEXT/UTF8
  65. Codec ID/Info : UTF-8 Plain Text
  66. Duration : 51 min 25 s
  67. Bit rate : 56 b/s
  68. Count of elements : 649
  69. Stream size : 21.2 KiB (0%)
  70. Language : Danish
  71. Default : No
  72. Forced : No

  73. Text #3
  74. ID : 5
  75. Format : UTF-8
  76. Codec ID : S_TEXT/UTF8
  77. Codec ID/Info : UTF-8 Plain Text
  78. Duration : 51 min 24 s
  79. Bit rate : 57 b/s
  80. Count of elements : 515
  81. Stream size : 21.6 KiB (0%)
  82. Language : German
  83. Default : No
  84. Forced : No

  85. Text #4
  86. ID : 6
  87. Format : UTF-8
  88. Codec ID : S_TEXT/UTF8
  89. Codec ID/Info : UTF-8 Plain Text
  90. Duration : 49 min 15 s
  91. Bit rate : 72 b/s
  92. Count of elements : 888
  93. Stream size : 26.3 KiB (0%)
  94. Title : (SDH)
  95. Language : English
  96. Default : No
  97. Forced : No

  98. Text #5
  99. ID : 7
  100. Format : UTF-8
  101. Codec ID : S_TEXT/UTF8
  102. Codec ID/Info : UTF-8 Plain Text
  103. Duration : 51 min 25 s
  104. Bit rate : 52 b/s
  105. Count of elements : 636
  106. Stream size : 19.9 KiB (0%)
  107. Language : fil
  108. Default : No
  109. Forced : No

  110. Text #6
  111. ID : 8
  112. Format : UTF-8
  113. Codec ID : S_TEXT/UTF8
  114. Codec ID/Info : UTF-8 Plain Text
  115. Duration : 51 min 25 s
  116. Bit rate : 57 b/s
  117. Count of elements : 648
  118. Stream size : 21.6 KiB (0%)
  119. Language : Finnish
  120. Default : No
  121. Forced : No

  122. Text #7
  123. ID : 9
  124. Format : UTF-8
  125. Codec ID : S_TEXT/UTF8
  126. Codec ID/Info : UTF-8 Plain Text
  127. Duration : 51 min 25 s
  128. Bit rate : 55 b/s
  129. Count of elements : 648
  130. Stream size : 20.8 KiB (0%)
  131. Language : French
  132. Default : No
  133. Forced : No

  134. Text #8
  135. ID : 10
  136. Format : UTF-8
  137. Codec ID : S_TEXT/UTF8
  138. Codec ID/Info : UTF-8 Plain Text
  139. Duration : 51 min 25 s
  140. Bit rate : 91 b/s
  141. Count of elements : 650
  142. Stream size : 34.5 KiB (0%)
  143. Language : Hebrew
  144. Default : No
  145. Forced : No

  146. Text #9
  147. ID : 11
  148. Format : UTF-8
  149. Codec ID : S_TEXT/UTF8
  150. Codec ID/Info : UTF-8 Plain Text
  151. Duration : 51 min 25 s
  152. Bit rate : 149 b/s
  153. Count of elements : 650
  154. Stream size : 56.5 KiB (0%)
  155. Language : Hindi
  156. Default : No
  157. Forced : No

  158. Text #10
  159. ID : 12
  160. Format : UTF-8
  161. Codec ID : S_TEXT/UTF8
  162. Codec ID/Info : UTF-8 Plain Text
  163. Duration : 51 min 25 s
  164. Bit rate : 57 b/s
  165. Count of elements : 647
  166. Stream size : 21.7 KiB (0%)
  167. Language : Indonesian
  168. Default : No
  169. Forced : No

  170. Text #11
  171. ID : 13
  172. Format : UTF-8
  173. Codec ID : S_TEXT/UTF8
  174. Codec ID/Info : UTF-8 Plain Text
  175. Duration : 51 min 25 s
  176. Bit rate : 58 b/s
  177. Count of elements : 649
  178. Stream size : 21.9 KiB (0%)
  179. Language : Italian
  180. Default : No
  181. Forced : No

  182. Text #12
  183. ID : 14
  184. Format : UTF-8
  185. Codec ID : S_TEXT/UTF8
  186. Codec ID/Info : UTF-8 Plain Text
  187. Duration : 51 min 25 s
  188. Bit rate : 51 b/s
  189. Count of elements : 665
  190. Stream size : 19.3 KiB (0%)
  191. Language : Japanese
  192. Default : No
  193. Forced : No

  194. Text #13
  195. ID : 15
  196. Format : UTF-8
  197. Codec ID : S_TEXT/UTF8
  198. Codec ID/Info : UTF-8 Plain Text
  199. Duration : 51 min 25 s
  200. Bit rate : 64 b/s
  201. Count of elements : 651
  202. Stream size : 24.3 KiB (0%)
  203. Language : Korean
  204. Default : No
  205. Forced : No

  206. Text #14
  207. ID : 16
  208. Format : UTF-8
  209. Codec ID : S_TEXT/UTF8
  210. Codec ID/Info : UTF-8 Plain Text
  211. Duration : 51 min 25 s
  212. Bit rate : 53 b/s
  213. Count of elements : 650
  214. Stream size : 20.1 KiB (0%)
  215. Language : Malay
  216. Default : No
  217. Forced : No

  218. Text #15
  219. ID : 17
  220. Format : UTF-8
  221. Codec ID : S_TEXT/UTF8
  222. Codec ID/Info : UTF-8 Plain Text
  223. Duration : 51 min 25 s
  224. Bit rate : 54 b/s
  225. Count of elements : 649
  226. Stream size : 20.6 KiB (0%)
  227. Language : Dutch
  228. Default : No
  229. Forced : No

  230. Text #16
  231. ID : 18
  232. Format : UTF-8
  233. Codec ID : S_TEXT/UTF8
  234. Codec ID/Info : UTF-8 Plain Text
  235. Duration : 51 min 25 s
  236. Bit rate : 57 b/s
  237. Count of elements : 649
  238. Stream size : 21.7 KiB (0%)
  239. Language : Norwegian Bokmal
  240. Default : No
  241. Forced : No

  242. Text #17
  243. ID : 19
  244. Format : UTF-8
  245. Codec ID : S_TEXT/UTF8
  246. Codec ID/Info : UTF-8 Plain Text
  247. Duration : 51 min 25 s
  248. Bit rate : 51 b/s
  249. Count of elements : 645
  250. Stream size : 19.5 KiB (0%)
  251. Language : Polish
  252. Default : No
  253. Forced : No

  254. Text #18
  255. ID : 20
  256. Format : UTF-8
  257. Codec ID : S_TEXT/UTF8
  258. Codec ID/Info : UTF-8 Plain Text
  259. Duration : 51 min 25 s
  260. Bit rate : 59 b/s
  261. Count of elements : 650
  262. Stream size : 22.4 KiB (0%)
  263. Language : Portuguese
  264. Default : No
  265. Forced : No

  266. Text #19
  267. ID : 21
  268. Format : UTF-8
  269. Codec ID : S_TEXT/UTF8
  270. Codec ID/Info : UTF-8 Plain Text
  271. Duration : 51 min 25 s
  272. Bit rate : 94 b/s
  273. Count of elements : 649
  274. Stream size : 35.7 KiB (0%)
  275. Language : Russian
  276. Default : No
  277. Forced : No

  278. Text #20
  279. ID : 22
  280. Format : UTF-8
  281. Codec ID : S_TEXT/UTF8
  282. Codec ID/Info : UTF-8 Plain Text
  283. Duration : 51 min 25 s
  284. Bit rate : 61 b/s
  285. Count of elements : 649
  286. Stream size : 23.1 KiB (0%)
  287. Language : Spanish
  288. Default : No
  289. Forced : No

  290. Text #21
  291. ID : 23
  292. Format : UTF-8
  293. Codec ID : S_TEXT/UTF8
  294. Codec ID/Info : UTF-8 Plain Text
  295. Duration : 51 min 25 s
  296. Bit rate : 59 b/s
  297. Count of elements : 649
  298. Stream size : 22.2 KiB (0%)
  299. Language : Swedish
  300. Default : No
  301. Forced : No

  302. Text #22
  303. ID : 24
  304. Format : UTF-8
  305. Codec ID : S_TEXT/UTF8
  306. Codec ID/Info : UTF-8 Plain Text
  307. Duration : 51 min 25 s
  308. Bit rate : 146 b/s
  309. Count of elements : 650
  310. Stream size : 55.2 KiB (0%)
  311. Language : Tamil
  312. Default : No
  313. Forced : No

  314. Text #23
  315. ID : 25
  316. Format : UTF-8
  317. Codec ID : S_TEXT/UTF8
  318. Codec ID/Info : UTF-8 Plain Text
  319. Duration : 51 min 25 s
  320. Bit rate : 153 b/s
  321. Count of elements : 650
  322. Stream size : 57.7 KiB (0%)
  323. Language : Telugu
  324. Default : No
  325. Forced : No

  326. Text #24
  327. ID : 26
  328. Format : UTF-8
  329. Codec ID : S_TEXT/UTF8
  330. Codec ID/Info : UTF-8 Plain Text
  331. Duration : 51 min 25 s
  332. Bit rate : 148 b/s
  333. Count of elements : 650
  334. Stream size : 56.0 KiB (0%)
  335. Language : Thai
  336. Default : No
  337. Forced : No

  338. Text #25
  339. ID : 27
  340. Format : UTF-8
  341. Codec ID : S_TEXT/UTF8
  342. Codec ID/Info : UTF-8 Plain Text
  343. Duration : 51 min 25 s
  344. Bit rate : 61 b/s
  345. Count of elements : 649
  346. Stream size : 23.3 KiB (0%)
  347. Language : Turkish
  348. Default : No
  349. Forced : No

  350. Text #26
  351. ID : 28
  352. Format : UTF-8
  353. Codec ID : S_TEXT/UTF8
  354. Codec ID/Info : UTF-8 Plain Text
  355. Duration : 51 min 25 s
  356. Bit rate : 53 b/s
  357. Count of elements : 649
  358. Stream size : 20.1 KiB (0%)
  359. Language : Chinese
  360. Default : No
  361. Forced : No
复制代码

无垠的太空 / 太空无垠 / 浩瀚天穹/苍穹浩瀚 第五季4k The.Expanse.S05E01.2160p.AMZN.WEB-DL.x265.10bit.HDR10plus.DDP5.1.美剧下载

苍穹浩瀚 第五季4k The.Expanse.S05E01.2160p.AMZN.WEB-DL.x265.10bit.HDR10plus.DDP5.1【5.54 GB】
[Hao4k]苍穹浩瀚 第五季4k The.Expanse.S05E01.2160p.AMZN.WEB-DL.x265.10bit.HDR10pl.torrent (28.25 KB)
回复

使用道具 举报

heijin1016 发表于 2020-12-28 15:06:39

heijin1016 推荐

2020-12-28 15:06:39

新起点2017 发表于 2020-12-21 08:35
对比《苍穹浩瀚》和《曼达洛人》,感觉还是苍穹更好看些,曼达洛人感觉目前的剧情太松散了。

曼达洛人画质一流,但论剧情和内涵浩瀚苍穹更胜一筹
回复 支持 1 反对 0

使用道具 举报

gadi202p 发表于 2020-12-17 14:41:05

gadi202p 6#

2020-12-17 14:41:05

昨天刚看了1080 今天4k出来了
回复 支持 反对

使用道具 举报

kaowng 发表于 2020-12-20 10:26:03

kaowng 8#

2020-12-20 10:26:03

这个剧到底是无垠太空还是浩瀚苍穹?
回复 支持 反对

使用道具 举报

skbh1976 发表于 2020-12-20 19:27:15

skbh1976 9#

2020-12-20 19:27:15

kaowng 发表于 2020-12-20 10:26
这个剧到底是无垠太空还是浩瀚苍穹?

译名不同而已。
回复 支持 反对

使用道具 举报

hemen 发表于 2020-12-20 19:36:56

hemen 10#

2020-12-20 19:36:56

新一季竟然就上线了。。。。。
回复 支持 反对

使用道具 举报

13919889526 发表于 2020-12-20 20:35:06

13919889526 11#

2020-12-20 20:35:06

好片!好资源!
回复 支持 反对

使用道具 举报

新起点2017 发表于 2020-12-21 08:35:47

新起点2017 12#

2020-12-21 08:35:47

对比《苍穹浩瀚》和《曼达洛人》,感觉还是苍穹更好看些,曼达洛人感觉目前的剧情太松散了。
回复 支持 反对

使用道具 举报

ywf6168 发表于 2020-12-23 14:49:14

ywf6168 13#

2020-12-23 14:49:14

楼主辛苦了,谢谢分享
回复 支持 反对

使用道具 举报

nicholas49 发表于 2020-12-23 22:14:43

nicholas49 14#

2020-12-23 22:14:43

新的一季还是一些无关主线的剧情,太沉闷了,比第4季还要沉闷,第四季已经是铺垫了,现在都不知道是什么鬼剧情
回复 支持 反对

使用道具 举报

1552933272 发表于 2020-12-24 10:43:49

1552933272 15#

2020-12-24 10:43:49

谢谢楼主,找了半天终于找到了
回复 支持 反对

使用道具 举报

jsj421 发表于 2020-12-25 11:19:29

jsj421 16#

2020-12-25 11:19:29

感谢LZ分享
回复 支持 反对

使用道具 举报

Yongjie_L 发表于 2020-12-26 22:54:28

Yongjie_L 17#

2020-12-26 22:54:28

感谢分享,终于等到第五季
回复 支持 反对

使用道具 举报

世爵39 发表于 2020-12-28 10:32:37

世爵39 19#

2020-12-28 10:32:37


不知道有没行尸走肉好看
回复 支持 反对

使用道具 举报

   发表回复

您需要登录后才可以回帖 登录 | 立即注册

返回列表 本版积分规则

:
白银玩家
:
未填写

主题

帖子

积分931

图文推荐

  • 杜比、DTS、PCM、AC-3、THX、SDDS音效有什

    杜比、DTS、PCM、AC-3、THX、SDDS音效有什么区别

  • 关于收藏《4KUHD蓝光原盘》还是《4KUHD蓝光

    《4K UHD 蓝光原盘》 优点:有导航菜单和电影幕后

  • 115网盘为什么限速了?

    115网盘为什么限速了?单任务只有1.5M,就算只开

  • 即将发布:夺宝奇兵4之水晶骷髅国4K UHD蓝

    最新消息:2008年美国惊悚/冒险动作片《夺宝奇兵4

  • 海信激光电视L5/L7新品发布相关素材

    海信激光电视L5/L7新品发布相关素材 一、行业

  • 在线客服

  • 返回顶部