微博 微信

Hao4K影音

[美剧] 末日逼近4k The.Stand.2020.S01E01.HDR.2160p美剧下载

2020-12-30 23:55:21 63370 20 |只看大图 回帖奖励 |倒序浏览 |阅读模式

大红色 楼主

2020-12-17 17:43:16

电视剧频道
电视剧封面:
电视剧名: 末日逼近4k
年  代: 2020  
国  家: 美国
类  别: 科幻 冒险 恐怖 剧情 奇幻 
语  言: 英语
字  幕: 英文原版
上映日期: 2020-12-17
文件格式: mkv    
视频效果: 4K(3840x2160)    
资源大小: 3.89 GB
片  长: -
导  演: 约什·布恩
剧情简介: 詹姆斯·麦斯登将主演改编自史蒂芬·金名作的CBS限定剧《末日逼近》,饰演男主角斯图·雷德曼!剧集共9集,由约什·布恩([星运里的错])打包执导,布恩同时与本·卡维尔撰写了全部剧本。原著小说描绘了美国军方研制的一种生物武器意外泄露,令整个世界病毒肆虐犹如末日一般,只有少数人活了下来。
末日逼近4k The.Stand.2020.S01E01.HDR.2160p.WEB.H265美剧信息
  1. Video
  2. ID : 1
  3. Format : HEVC
  4. Format/Info : High Efficiency Video Coding
  5. Format profile : Main 10@L5@Main
  6. HDR format : SMPTE ST 2094 App 4, Version 1, HDR10+ Profile B compatible
  7. Codec ID : V_MPEGH/ISO/HEVC
  8. Duration : 58 min 59 s
  9. Bit rate : 8 863 kb/s
  10. Width : 3 840 pixels
  11. Height : 2 160 pixels
  12. Display aspect ratio : 16:9
  13. Frame rate mode : Constant
  14. Frame rate : 23.976 (24000/1001) FPS
  15. Color space : YUV
  16. Chroma subsampling : 4:2:0 (Type 2)
  17. Bit depth : 10 bits
  18. Bits/(Pixel*Frame) : 0.045
  19. Stream size : 3.65 GiB (94%)
  20. Default : Yes
  21. Forced : No
  22. Color range : Limited
  23. Color primaries : BT.2020
  24. Transfer characteristics : PQ
  25. Matrix coefficients : BT.2020 non-constant
  26. Mastering display color primaries : Display P3
  27. Mastering display luminance : min: 0.0001 cd/m2, max: 1000 cd/m2

  28. Audio
  29. ID : 2
  30. Format : AC-3
  31. Format/Info : Audio Coding 3
  32. Commercial name : Dolby Digital
  33. Codec ID : A_AC3
  34. Duration : 58 min 59 s
  35. Bit rate mode : Constant
  36. Bit rate : 384 kb/s
  37. Channel(s) : 6 channels
  38. Channel layout : L R C LFE Ls Rs
  39. Sampling rate : 48.0 kHz
  40. Frame rate : 31.250 FPS (1536 SPF)
  41. Compression mode : Lossy
  42. Stream size : 162 MiB (4%)
  43. Language : English
  44. Service kind : Complete Main
  45. Default : Yes
  46. Forced : No

  47. Text
  48. ID : 3
  49. Format : UTF-8
  50. Codec ID : S_TEXT/UTF8
  51. Codec ID/Info : UTF-8 Plain Text
  52. Language : English
  53. Default : No
  54. Forced : No
复制代码

末日逼近4k The.Stand.2020.S01E01.HDR.2160p.WEB.H265美剧下载

末日逼近4k The.Stand.2020.S01E01.HDR.2160p.WEB.H265【3.89 GB】
[Hao4k]末日逼近4k The.Stand.2020.S01E01.HDR.2160p.WEB.H265-GLHF[rartv].torrent (39.4 KB)
回复

使用道具 举报

树梢踏浪 发表于 2020-12-28 22:14:37

树梢踏浪 推荐

2020-12-28 22:14:37

thank you  very much!
回复 支持 反对

使用道具 举报

我爱看美剧 发表于 2020-12-29 16:16:36

我爱看美剧 推荐

2020-12-29 16:16:36

请问上下两个版本有什么区别?
回复 支持 反对

使用道具 举报

lizard 发表于 2020-12-18 08:23:04

lizard 地板

2020-12-18 08:23:04

非常感谢分享。
回复 支持 反对

使用道具 举报

kywblyj 发表于 2020-12-18 08:51:35

kywblyj 5#

2020-12-18 08:51:35

楼主娶8个老婆,感谢
回复 支持 反对

使用道具 举报

kkkkwoai 发表于 2020-12-18 18:08:01 Hao4K手机版

kkkkwoai 7#

2020-12-18 18:08:01

有中文字幕没得?
回复 支持 反对

使用道具 举报

月光麦田 发表于 2020-12-20 19:29:48

月光麦田 8#

2020-12-20 19:29:48

不知道有没行尸走肉好看
回复 支持 反对

使用道具 举报

wswj_520 发表于 2020-12-20 21:28:55

wswj_520 9#

2020-12-20 21:28:55

才出一集啊?
回复 支持 反对

使用道具 举报

杰哥玩数码 发表于 2020-12-20 21:54:14

杰哥玩数码 10#

2020-12-20 21:54:14

好电影,好资源,赞一个
回复 支持 反对

使用道具 举报

世爵39 发表于 2020-12-23 09:25:43

世爵39 11#

2020-12-23 09:25:43

好电影,好资源,赞多一个
回复 支持 反对

使用道具 举报

世爵39 发表于 2020-12-24 08:19:46

世爵39 12#

2020-12-24 08:19:46

好电影,好资源
回复 支持 反对

使用道具 举报

世爵39 发表于 2020-12-28 10:12:33

世爵39 13#

2020-12-28 10:12:33

大家早上好!!!!
回复 支持 反对

使用道具 举报

世爵39 发表于 2020-12-28 10:26:54

世爵39 14#

2020-12-28 10:26:54

好电影,好资源
回复 支持 反对

使用道具 举报

世爵39 发表于 2020-12-28 10:32:03

世爵39 15#

2020-12-28 10:32:03


不知道有没行尸走肉好看
回复 支持 反对

使用道具 举报

Yingjianjun 发表于 2020-12-29 15:43:35

Yingjianjun 16#

2020-12-29 15:43:35

thank you so much. Thanks !
回复 支持 反对

使用道具 举报

暴力一武僧 发表于 2020-12-30 19:43:10

暴力一武僧 17#

2020-12-30 19:43:10

病毒已经席卷全球
回复 支持 反对

使用道具 举报

dragon5i 发表于 2020-12-30 23:55:21

dragon5i 18#

2020-12-30 23:55:21

期待第二级快点更新。
回复 支持 反对

使用道具 举报

   发表回复

您需要登录后才可以回帖 登录 | 立即注册

返回列表 本版积分规则

:
白银玩家
:
未填写

主题

帖子

积分931

图文推荐

  • 杜比、DTS、PCM、AC-3、THX、SDDS音效有什

    杜比、DTS、PCM、AC-3、THX、SDDS音效有什么区别

  • 关于收藏《4KUHD蓝光原盘》还是《4KUHD蓝光

    《4K UHD 蓝光原盘》 优点:有导航菜单和电影幕后

  • 115网盘为什么限速了?

    115网盘为什么限速了?单任务只有1.5M,就算只开

  • 即将发布:夺宝奇兵4之水晶骷髅国4K UHD蓝

    最新消息:2008年美国惊悚/冒险动作片《夺宝奇兵4

  • 海信激光电视L5/L7新品发布相关素材

    海信激光电视L5/L7新品发布相关素材 一、行业

  • 在线客服

  • 返回顶部