微博 微信

Hao4K影音

[美剧] 双面警长 第三季4k Tin.Star.S03.2160p美剧下载

前天 09:58 25058 3 |只看大图 回帖奖励 |倒序浏览 |阅读模式

大红色 楼主

2020-12-17 19:16:14

电视剧频道
电视剧封面:
电视剧名: 双面警长 第三季4k
年  代: 2020  
国  家: 美国
类  别: 犯罪 惊悚 剧情 
语  言: 英语
字  幕: 英文原版
上映日期: 2020-12-10
文件格式: mkv    
视频效果: 4K(3840x2160)    
资源大小: 34.51 GB
片  长: 34.51 分钟
导  演: -
剧情简介: Tim Roth主演的Sky Atlantic剧集《#双面警长# Tin Star》第三季11月回归,定名为《双面警长:利物浦》。
  第三季为最终季,主角一家人将回到英国,面对他们的过去。
  新加盟的卡司有Ian Hart、Tanya Moodie、Kerrie Hayes和Joanne Whalley。
双面警长:利物浦 / Tin Star: Liverpool/双面警长 第三季4k Tin.Star.S03.2160p.AUHDTV.x265美剧信息
  1. Video
  2. ID : 1
  3. Format : HEVC
  4. Format/Info : High Efficiency Video Coding
  5. Format profile : Main 10@L5.2@High
  6. Codec ID : V_MPEGH/ISO/HEVC
  7. Duration : 52 min 34 s
  8. Bit rate : 18.2 Mb/s
  9. Width : 3 840 pixels
  10. Height : 2 160 pixels
  11. Display aspect ratio : 16:9
  12. Frame rate mode : Constant
  13. Frame rate : 50.000 FPS
  14. Color space : YUV
  15. Chroma subsampling : 4:2:0
  16. Bit depth : 10 bits
  17. Bits/(Pixel*Frame) : 0.044
  18. Stream size : 6.68 GiB (98%)
  19. Writing library : x265 3.4+26-ga82c6c7a7:[Windows][GCC 10.2.0][64 bit] 10bit
  20. Encoding settings : cpuid=1111039 / frame-threads=3 / numa-pools=12 / wpp / no-pmode / no-pme / no-psnr / no-ssim / log-level=2 / input-csp=1 / input-res=3840x2160 / interlace=0 / total-frames=0 / level-idc=52 / high-tier=1 / uhd-bd=0 / ref=4 / no-allow-non-conformance / repeat-headers / annexb / aud / hrd / info / hash=0 / no-temporal-layers / open-gop / min-keyint=25 / keyint=250 / gop-lookahead=0 / bframes=4 / b-adapt=2 / b-pyramid / bframe-bias=0 / rc-lookahead=25 / lookahead-slices=4 / scenecut=40 / hist-scenecut=0 / radl=0 / no-splice / no-intra-refresh / ctu=64 / min-cu-size=8 / rect / no-amp / max-tu-size=32 / tu-inter-depth=1 / tu-intra-depth=1 / limit-tu=0 / rdoq-level=2 / dynamic-rd=0.00 / no-ssim-rd / signhide / no-tskip / nr-intra=0 / nr-inter=0 / no-constrained-intra / strong-intra-smoothing / max-merge=3 / limit-refs=3 / limit-modes / me=3 / subme=3 / merange=57 / temporal-mvp / no-frame-dup / no-hme / weightp / no-weightb / no-analyze-src-pics / deblock=0:0 / sao / no-sao-non-deblock / rd=4 / selective-sao=4 / no-early-skip / rskip / no-fast-intra / no-tskip-fast / no-cu-lossless / no-b-intra / no-splitrd-skip / rdpenalty=0 / psy-rd=2.00 / psy-rdoq=1.00 / no-rd-refine / no-lossless / cbqpoffs=0 / crqpoffs=0 / rc=crf / crf=16.0 / qcomp=0.60 / qpstep=4 / stats-write=0 / stats-read=0 / vbv-maxrate=240000 / vbv-bufsize=240000 / vbv-init=0.9 / min-vbv-fullness=50.0 / max-vbv-fullness=80.0 / crf-max=0.0 / crf-min=0.0 / ipratio=1.40 / pbratio=1.30 / aq-mode=2 / aq-strength=1.00 / cutree / zone-count=0 / no-strict-cbr / qg-size=32 / no-rc-grain / qpmax=69 / qpmin=0 / no-const-vbv / sar=1 / overscan=0 / videoformat=5 / range=0 / colorprim=1 / transfer=1 / colormatrix=1 / chromaloc=0 / display-window=0 / cll=0,0 / min-luma=0 / max-luma=1023 / log2-max-poc-lsb=8 / vui-timing-info / vui-hrd-info / slices=1 / no-opt-qp-pps / no-opt-ref-list-length-pps / no-multi-pass-opt-rps / scenecut-bias=0.05 / hist-threshold=0.03 / no-opt-cu-delta-qp / no-aq-motion / no-hdr10 / no-hdr10-opt / no-dhdr10-opt / no-idr-recovery-sei / analysis-reuse-level=0 / analysis-save-reuse-level=0 / analysis-load-reuse-level=0 / scale-factor=0 / refine-intra=0 / refine-inter=0 / refine-mv=1 / refine-ctu-distortion=0 / no-limit-sao / ctu-info=0 / no-lowpass-dct / refine-analysis-type=0 / copy-pic=1 / max-ausize-factor=1.0 / no-dynamic-refine / no-single-sei / no-hevc-aq / no-svt / no-field / qp-adaptation-range=1.00 / no-scenecut-aware-qpconformance-window-offsets / right=0 / bottom=0 / decoder-max-rate=0 / no-vbv-live-multi-pass
  21. Default : Yes
  22. Forced : No
  23. Color range : Limited
  24. Color primaries : BT.709
  25. Transfer characteristics : BT.709
  26. Matrix coefficients : BT.709

  27. Audio
  28. ID : 2
  29. Format : AC-3
  30. Format/Info : Audio Coding 3
  31. Commercial name : Dolby Digital
  32. Codec ID : A_AC3
  33. Duration : 52 min 35 s
  34. Bit rate mode : Constant
  35. Bit rate : 384 kb/s
  36. Channel(s) : 2 channels
  37. Channel layout : L R
  38. Sampling rate : 48.0 kHz
  39. Frame rate : 31.250 FPS (1536 SPF)
  40. Compression mode : Lossy
  41. Delay relative to video : -200 ms
  42. Stream size : 144 MiB (2%)
  43. Service kind : Complete Main
  44. Default : Yes
  45. Forced : No
复制代码

双面警长:利物浦 / Tin Star: Liverpool/双面警长 第三季4k Tin.Star.S03.2160p.AUHDTV.x265美剧下载

双面警长 第三季4k Tin.Star.S03.2160p.AUHDTV.x265【34.51 GB】
[Hao4k]双面警长 第三季4k Tin.Star.S03.2160p.AUHDTV.x265-FaiLED[rartv].torrent (87.22 KB)
回复

使用道具 举报

全部回复3

123zzy 发表于 2020-12-18 22:19:39

123zzy 沙发

2020-12-18 22:19:39

顺带求一个字幕
回复 支持 反对

使用道具 举报

yltanghui 发表于 2020-12-24 13:25:57

yltanghui 板凳

2020-12-24 13:25:57

网上还搜不到中文字幕
回复 支持 反对

使用道具 举报

   发表回复

您需要登录后才可以回帖 登录 | 立即注册

返回列表 本版积分规则

:
白银玩家
:
未填写

主题

帖子

积分949

图文推荐

  • 《比利林恩的中场战事》为数不多的原生60帧

    听说原片是120帧的,怀着很期待的心情看的一脸

  • 《The Lord of the Rings 魔戒》全新影集故

    Amazon早在多年前便宣布耗资 2亿5千万美元买下

  • 即将发布:核子航母遇险记4K UHD杜比视界蓝

    最新消息:1980年美国科幻冒险战争片《核子航母遇

  • 4K电影下载软件:uTorrent Pro高级破解版wi

    Mac/苹果电脑 μTorrent for Mac 3.3.2.30180 已

  • 个人的经验心得(一):媒体文件的储存

    论坛上的爱好者好多,很喜欢和大家交流一下经验,

  • 在线客服

  • 返回顶部