微博 微信

Hao4K影音

[美剧] 救命下课铃4k Saved.By.The.Bell.2020.S01.2160p.美剧下载

2020-12-18 12:16:47 8828 0 |只看大图 回帖奖励 |倒序浏览 |阅读模式

大红色 楼主

2020-12-18 12:16:47

电视剧频道
电视剧封面:
电视剧名: 救命下课铃4k
年  代: 2020  
国  家: 美国
类  别: 喜剧 
语  言: 英语
字  幕: 英文原版
上映日期: 2020-11-25
文件格式: mkv    
视频效果: 4K(3840x2160)    
资源大小: 27.21 GB
片  长: -
导  演: Dashiell Driscoll / Erin Fischer / Marcos Gonzalez
剧情简介: 根据1**同名喜剧改编,讲述加州州长Zack Morris因为把太多低收入高中关门而陷入水深火热的地步,故此他决定把受到影响的学生都送到加州最好的学校 – Bayside高中。
救命下课铃4k Saved.By.The.Bell.2020.S01.2160p.STAN.WEBRip.AAC5.1.x265.美剧信息
  1. Video
  2. ID : 1
  3. Format : HEVC
  4. Format/Info : High Efficiency Video Coding
  5. Format profile : Main@L5@High
  6. Codec ID : V_MPEGH/ISO/HEVC
  7. Duration : 31 min 21 s
  8. Bit rate : 14.5 Mb/s
  9. Width : 3 840 pixels
  10. Height : 2 160 pixels
  11. Display aspect ratio : 16:9
  12. Frame rate mode : Constant
  13. Frame rate : 23.976 (23976/1000) FPS
  14. Original frame rate : 23.976 (24000/1001) FPS
  15. Color space : YUV
  16. Chroma subsampling : 4:2:0
  17. Bit depth : 8 bits
  18. Bits/(Pixel*Frame) : 0.073
  19. Stream size : 3.18 GiB (97%)
  20. Default : Yes
  21. Forced : No
  22. Color range : Limited
  23. Color primaries : BT.709
  24. Transfer characteristics : BT.709
  25. Matrix coefficients : BT.709

  26. Audio
  27. ID : 2
  28. Format : AAC LC
  29. Format/Info : Advanced Audio Codec Low Complexity
  30. Codec ID : A_AAC-2
  31. Duration : 31 min 21 s
  32. Bit rate : 445 kb/s
  33. Channel(s) : 6 channels
  34. Channel layout : C L R Ls Rs LFE
  35. Sampling rate : 48.0 kHz
  36. Frame rate : 46.875 FPS (1024 SPF)
  37. Compression mode : Lossy
  38. Stream size : 99.9 MiB (3%)
  39. Language : English
  40. Default : Yes
  41. Forced : No

  42. Text
  43. ID : 3
  44. Format : UTF-8
  45. Codec ID : S_TEXT/UTF8
  46. Codec ID/Info : UTF-8 Plain Text
  47. Duration : 31 min 14 s
  48. Bit rate : 122 b/s
  49. Count of elements : 862
  50. Stream size : 28.1 KiB (0%)
  51. Title : SDH
  52. Language : English
  53. Default : No
  54. Forced : No

  55. Menu
  56. 00:02:55.000 : en:Intro start
  57. 00:03:27.000 : en:Intro end
  58. 00:30:20.000 : en:Credits
复制代码

救命下课铃4k Saved.By.The.Bell.2020.S01.2160p.STAN.WEBRip.AAC5.1.x265.美剧下载

救命下课铃4k Saved.By.The.Bell.2020.S01.2160p.STAN.WEBRip.AAC5.1.x265【27.21 GB】
[Hao4k]救命下课铃4k Saved.By.The.Bell.2020.S01.2160p.STAN.WEBRip.AAC5.1.x265-NTb.torrent (69.63 KB)
回复

使用道具 举报

   发表回复

您需要登录后才可以回帖 登录 | 立即注册

返回列表 本版积分规则

:
白银玩家
:
未填写

主题

帖子

积分937

图文推荐

  • 铁威马利用VirtualBox虚拟机安装LEDE(kools

    1.应用中心下载好VirtualBox。2.下载好OVA模板 (

  • 即将发布:疯狂原始人2 4K UHD 2160p蓝光原

    最新消息:疯狂原始人系列动画片续集《疯狂原始人

  • 分享教你怎么将手机画面投屏到投影机上的方

    怎么将手机上的内容通过投影机投屏给家人一起看呢

  • 精华帖 电脑什么配置播放4K-8k最好?核显

    8月6日最新更新 最近配电脑打算用于娱乐

  • 外挂字幕音轨与视频封装技术方法教程

    先说说我的心路历程,一切的开始是从寻找合适的播

  • 在线客服

  • 返回顶部