微博 微信

Hao4K影音

[美剧] 幽灵写手 第一季4k Ghostwriter.2019.S01.2160p.电影下载

2020-12-27 12:41:01 29949 5 |只看大图 回帖奖励 |倒序浏览 |阅读模式

大红色 楼主

2020-12-21 10:59:29

电视剧频道
电视剧封面:
电视剧名: 幽灵写手 第一季4k
年  代: 2019  
国  家: 美国
类  别: 喜剧 家庭 
语  言: 英语
字  幕: 英文原版
上映日期: 2019-11-01
文件格式: mkv    
视频效果: 4K(3840x2160)    
资源大小: 28.66 GB
片  长: 25 分钟
导  演: Mars Horodyski / Melanie Orr / 卢克·梅瑟尼
剧情简介:  90年代同名儿童剧的重启作,讲述一个在小型书店的鬼魂把书中的虚构人物释放到现实世界时,四个孩子因此组合起来为鬼魂解决各种未了之事。
代笔小队 / 小鬼与文字幽灵(台)/幽灵写手 第一季4k Ghostwriter.2019.S01.2160p.ATVP.WEB-DL.x265.10bit.HDR.DD5.1.电影信息
  1. Video
  2. ID : 1
  3. Format : HEVC
  4. Format/Info : High Efficiency Video Coding
  5. Format profile : Main 10@L5@High
  6. HDR format : SMPTE ST 2086, HDR10 compatible
  7. Codec ID : V_MPEGH/ISO/HEVC
  8. Duration : 26 min 20 s
  9. Bit rate : 24.1 Mb/s
  10. Width : 3 840 pixels
  11. Height : 1 916 pixels
  12. Display aspect ratio : 2.004
  13. Frame rate mode : Constant
  14. Frame rate : 23.976 (24000/1001) FPS
  15. Color space : YUV
  16. Chroma subsampling : 4:2:0 (Type 2)
  17. Bit depth : 10 bits
  18. Bits/(Pixel*Frame) : 0.137
  19. Stream size : 4.44 GiB (98%)
  20. Language : English
  21. Default : Yes
  22. Forced : No
  23. Color range : Limited
  24. Color primaries : BT.2020
  25. Transfer characteristics : PQ
  26. Matrix coefficients : BT.2020 non-constant
  27. Mastering display color primaries : Display P3
  28. Mastering display luminance : min: 0.0050 cd/m2, max: 1000 cd/m2
  29. Maximum Content Light Level : 2386 cd/m2
  30. Maximum Frame-Average Light Level : 319 cd/m2

  31. Audio
  32. ID : 2
  33. Format : AC-3
  34. Format/Info : Audio Coding 3
  35. Commercial name : Dolby Digital
  36. Codec ID : A_AC3
  37. Duration : 26 min 20 s
  38. Bit rate mode : Constant
  39. Bit rate : 384 kb/s
  40. Channel(s) : 6 channels
  41. Channel layout : L R C LFE Ls Rs
  42. Sampling rate : 48.0 kHz
  43. Frame rate : 31.250 FPS (1536 SPF)
  44. Compression mode : Lossy
  45. Stream size : 72.3 MiB (2%)
  46. Language : English
  47. Service kind : Complete Main
  48. Default : Yes
  49. Forced : No

  50. Text #1
  51. ID : 3
  52. Format : UTF-8
  53. Codec ID : S_TEXT/UTF8
  54. Codec ID/Info : UTF-8 Plain Text
  55. Duration : 26 min 3 s
  56. Bit rate : 105 b/s
  57. Count of elements : 407
  58. Stream size : 20.2 KiB (0%)
  59. Language : Arabic
  60. Default : No
  61. Forced : No

  62. Text #2
  63. ID : 4
  64. Format : UTF-8
  65. Codec ID : S_TEXT/UTF8
  66. Codec ID/Info : UTF-8 Plain Text
  67. Duration : 26 min 3 s
  68. Bit rate : 96 b/s
  69. Count of elements : 364
  70. Stream size : 18.4 KiB (0%)
  71. Language : Bulgarian
  72. Default : No
  73. Forced : No

  74. Text #3
  75. ID : 5
  76. Format : UTF-8
  77. Codec ID : S_TEXT/UTF8
  78. Codec ID/Info : UTF-8 Plain Text
  79. Duration : 26 min 3 s
  80. Bit rate : 59 b/s
  81. Count of elements : 404
  82. Stream size : 11.3 KiB (0%)
  83. Language : Czech
  84. Default : No
  85. Forced : No

  86. Text #4
  87. ID : 6
  88. Format : UTF-8
  89. Codec ID : S_TEXT/UTF8
  90. Codec ID/Info : UTF-8 Plain Text
  91. Duration : 26 min 3 s
  92. Bit rate : 69 b/s
  93. Count of elements : 412
  94. Stream size : 13.2 KiB (0%)
  95. Language : Chinese
  96. Default : No
  97. Forced : No

  98. Text #5
  99. ID : 7
  100. Format : UTF-8
  101. Codec ID : S_TEXT/UTF8
  102. Codec ID/Info : UTF-8 Plain Text
  103. Duration : 26 min 3 s
  104. Bit rate : 65 b/s
  105. Count of elements : 356
  106. Stream size : 12.5 KiB (0%)
  107. Language : Danish
  108. Default : No
  109. Forced : No

  110. Text #6
  111. ID : 8
  112. Format : UTF-8
  113. Codec ID : S_TEXT/UTF8
  114. Codec ID/Info : UTF-8 Plain Text
  115. Duration : 26 min 3 s
  116. Bit rate : 78 b/s
  117. Count of elements : 362
  118. Stream size : 14.9 KiB (0%)
  119. Language : German
  120. Default : No
  121. Forced : No

  122. Text #7
  123. ID : 9
  124. Format : UTF-8
  125. Codec ID : S_TEXT/UTF8
  126. Codec ID/Info : UTF-8 Plain Text
  127. Duration : 26 min 3 s
  128. Bit rate : 104 b/s
  129. Count of elements : 402
  130. Stream size : 19.9 KiB (0%)
  131. Language : Greek
  132. Default : No
  133. Forced : No

  134. Text #8
  135. ID : 10
  136. Format : UTF-8
  137. Codec ID : S_TEXT/UTF8
  138. Codec ID/Info : UTF-8 Plain Text
  139. Duration : 24 min 53 s
  140. Bit rate : 77 b/s
  141. Count of elements : 406
  142. Stream size : 14.1 KiB (0%)
  143. Language : English
  144. Default : No
  145. Forced : No

  146. Text #9
  147. ID : 11
  148. Format : UTF-8
  149. Codec ID : S_TEXT/UTF8
  150. Codec ID/Info : UTF-8 Plain Text
  151. Duration : 24 min 57 s
  152. Bit rate : 81 b/s
  153. Count of elements : 440
  154. Stream size : 14.8 KiB (0%)
  155. Title : (SDH)
  156. Language : English
  157. Default : No
  158. Forced : No

  159. Text #10
  160. ID : 12
  161. Format : UTF-8
  162. Codec ID : S_TEXT/UTF8
  163. Codec ID/Info : UTF-8 Plain Text
  164. Duration : 26 min 3 s
  165. Bit rate : 61 b/s
  166. Count of elements : 344
  167. Stream size : 11.8 KiB (0%)
  168. Language : Estonian
  169. Default : No
  170. Forced : No

  171. Text #11
  172. ID : 13
  173. Format : UTF-8
  174. Codec ID : S_TEXT/UTF8
  175. Codec ID/Info : UTF-8 Plain Text
  176. Duration : 26 min 3 s
  177. Bit rate : 62 b/s
  178. Count of elements : 405
  179. Stream size : 12.0 KiB (0%)
  180. Language : Finnish
  181. Default : No
  182. Forced : No

  183. Text #12
  184. ID : 14
  185. Format : UTF-8
  186. Codec ID : S_TEXT/UTF8
  187. Codec ID/Info : UTF-8 Plain Text
  188. Duration : 26 min 3 s
  189. Bit rate : 68 b/s
  190. Count of elements : 425
  191. Stream size : 13.1 KiB (0%)
  192. Language : French
  193. Default : No
  194. Forced : No

  195. Text #13
  196. ID : 15
  197. Format : UTF-8
  198. Codec ID : S_TEXT/UTF8
  199. Codec ID/Info : UTF-8 Plain Text
  200. Duration : 26 min 3 s
  201. Bit rate : 102 b/s
  202. Count of elements : 411
  203. Stream size : 19.5 KiB (0%)
  204. Language : Hebrew
  205. Default : No
  206. Forced : No

  207. Text #14
  208. ID : 16
  209. Format : UTF-8
  210. Codec ID : S_TEXT/UTF8
  211. Codec ID/Info : UTF-8 Plain Text
  212. Duration : 26 min 3 s
  213. Bit rate : 191 b/s
  214. Count of elements : 412
  215. Stream size : 36.6 KiB (0%)
  216. Language : Hindi
  217. Default : No
  218. Forced : No

  219. Text #15
  220. ID : 17
  221. Format : UTF-8
  222. Codec ID : S_TEXT/UTF8
  223. Codec ID/Info : UTF-8 Plain Text
  224. Duration : 26 min 3 s
  225. Bit rate : 57 b/s
  226. Count of elements : 406
  227. Stream size : 10.9 KiB (0%)
  228. Language : Hungarian
  229. Default : No
  230. Forced : No

  231. Text #16
  232. ID : 18
  233. Format : UTF-8
  234. Codec ID : S_TEXT/UTF8
  235. Codec ID/Info : UTF-8 Plain Text
  236. Duration : 26 min 3 s
  237. Bit rate : 68 b/s
  238. Count of elements : 410
  239. Stream size : 13.1 KiB (0%)
  240. Language : Indonesian
  241. Default : No
  242. Forced : No

  243. Text #17
  244. ID : 19
  245. Format : UTF-8
  246. Codec ID : S_TEXT/UTF8
  247. Codec ID/Info : UTF-8 Plain Text
  248. Duration : 26 min 3 s
  249. Bit rate : 70 b/s
  250. Count of elements : 369
  251. Stream size : 13.4 KiB (0%)
  252. Language : Italian
  253. Default : No
  254. Forced : No

  255. Text #18
  256. ID : 20
  257. Format : UTF-8
  258. Codec ID : S_TEXT/UTF8
  259. Codec ID/Info : UTF-8 Plain Text
  260. Duration : 26 min 3 s
  261. Bit rate : 59 b/s
  262. Count of elements : 383
  263. Stream size : 11.4 KiB (0%)
  264. Language : Japanese
  265. Default : No
  266. Forced : No

  267. Text #19
  268. ID : 21
  269. Format : UTF-8
  270. Codec ID : S_TEXT/UTF8
  271. Codec ID/Info : UTF-8 Plain Text
  272. Duration : 26 min 3 s
  273. Bit rate : 83 b/s
  274. Count of elements : 412
  275. Stream size : 16.0 KiB (0%)
  276. Language : Korean
  277. Default : No
  278. Forced : No

  279. Text #20
  280. ID : 22
  281. Format : UTF-8
  282. Codec ID : S_TEXT/UTF8
  283. Codec ID/Info : UTF-8 Plain Text
  284. Duration : 26 min 3 s
  285. Bit rate : 69 b/s
  286. Count of elements : 409
  287. Stream size : 13.2 KiB (0%)
  288. Language : Latvian
  289. Default : No
  290. Forced : No

  291. Text #21
  292. ID : 23
  293. Format : UTF-8
  294. Codec ID : S_TEXT/UTF8
  295. Codec ID/Info : UTF-8 Plain Text
  296. Duration : 26 min 3 s
  297. Bit rate : 74 b/s
  298. Count of elements : 409
  299. Stream size : 14.3 KiB (0%)
  300. Language : Lithuanian
  301. Default : No
  302. Forced : No

  303. Text #22
  304. ID : 24
  305. Format : UTF-8
  306. Codec ID : S_TEXT/UTF8
  307. Codec ID/Info : UTF-8 Plain Text
  308. Duration : 26 min 3 s
  309. Bit rate : 77 b/s
  310. Count of elements : 407
  311. Stream size : 14.8 KiB (0%)
  312. Language : Malay
  313. Default : No
  314. Forced : No

  315. Text #23
  316. ID : 25
  317. Format : UTF-8
  318. Codec ID : S_TEXT/UTF8
  319. Codec ID/Info : UTF-8 Plain Text
  320. Duration : 26 min 3 s
  321. Bit rate : 54 b/s
  322. Count of elements : 309
  323. Stream size : 10.5 KiB (0%)
  324. Language : Dutch
  325. Default : No
  326. Forced : No

  327. Text #24
  328. ID : 26
  329. Format : UTF-8
  330. Codec ID : S_TEXT/UTF8
  331. Codec ID/Info : UTF-8 Plain Text
  332. Duration : 26 min 3 s
  333. Bit rate : 62 b/s
  334. Count of elements : 411
  335. Stream size : 11.9 KiB (0%)
  336. Language : Norwegian
  337. Default : No
  338. Forced : No

  339. Text #25
  340. ID : 27
  341. Format : UTF-8
  342. Codec ID : S_TEXT/UTF8
  343. Codec ID/Info : UTF-8 Plain Text
  344. Duration : 26 min 3 s
  345. Bit rate : 58 b/s
  346. Count of elements : 404
  347. Stream size : 11.1 KiB (0%)
  348. Language : Polish
  349. Default : No
  350. Forced : No

  351. Text #26
  352. ID : 28
  353. Format : UTF-8
  354. Codec ID : S_TEXT/UTF8
  355. Codec ID/Info : UTF-8 Plain Text
  356. Duration : 26 min 3 s
  357. Bit rate : 68 b/s
  358. Count of elements : 399
  359. Stream size : 13.1 KiB (0%)
  360. Language : Portuguese
  361. Default : No
  362. Forced : No

  363. Text #27
  364. ID : 29
  365. Format : UTF-8
  366. Codec ID : S_TEXT/UTF8
  367. Codec ID/Info : UTF-8 Plain Text
  368. Duration : 26 min 3 s
  369. Bit rate : 100 b/s
  370. Count of elements : 412
  371. Stream size : 19.2 KiB (0%)
  372. Language : Russian
  373. Default : No
  374. Forced : No

  375. Text #28
  376. ID : 30
  377. Format : UTF-8
  378. Codec ID : S_TEXT/UTF8
  379. Codec ID/Info : UTF-8 Plain Text
  380. Duration : 26 min 3 s
  381. Bit rate : 62 b/s
  382. Count of elements : 410
  383. Stream size : 11.9 KiB (0%)
  384. Language : Slovak
  385. Default : No
  386. Forced : No

  387. Text #29
  388. ID : 31
  389. Format : UTF-8
  390. Codec ID : S_TEXT/UTF8
  391. Codec ID/Info : UTF-8 Plain Text
  392. Duration : 26 min 3 s
  393. Bit rate : 51 b/s
  394. Count of elements : 378
  395. Stream size : 9.75 KiB (0%)
  396. Language : Slovenian
  397. Default : No
  398. Forced : No

  399. Text #30
  400. ID : 32
  401. Format : UTF-8
  402. Codec ID : S_TEXT/UTF8
  403. Codec ID/Info : UTF-8 Plain Text
  404. Duration : 26 min 3 s
  405. Bit rate : 80 b/s
  406. Count of elements : 419
  407. Stream size : 15.4 KiB (0%)
  408. Language : Spanish
  409. Default : No
  410. Forced : No

  411. Text #31
  412. ID : 33
  413. Format : UTF-8
  414. Codec ID : S_TEXT/UTF8
  415. Codec ID/Info : UTF-8 Plain Text
  416. Duration : 26 min 3 s
  417. Bit rate : 66 b/s
  418. Count of elements : 412
  419. Stream size : 12.7 KiB (0%)
  420. Language : Swedish
  421. Default : No
  422. Forced : No

  423. Text #32
  424. ID : 34
  425. Format : UTF-8
  426. Codec ID : S_TEXT/UTF8
  427. Codec ID/Info : UTF-8 Plain Text
  428. Duration : 26 min 3 s
  429. Bit rate : 226 b/s
  430. Count of elements : 413
  431. Stream size : 43.2 KiB (0%)
  432. Language : Tamil
  433. Default : No
  434. Forced : No
复制代码

代笔小队 / 小鬼与文字幽灵(台)/幽灵写手 第一季4k Ghostwriter.2019.S01.2160p.ATVP.WEB-DL.x265.10bit.HDR.DD5.1.电影下载

幽灵写手 第一季4k Ghostwriter.2019.S01.2160p.ATVP.WEB-DL.x265.10bit.HDR.DD5.1【28.66 GB】
[Hao4k]幽灵写手 第一季4k Ghostwriter.2019.S01.2160p.ATVP.WEB-DL.x265.10bit.HDR.D.torrent (72.77 KB)
回复

使用道具 举报

全部回复5

南国芋头 发表于 2020-12-22 14:52:33

南国芋头 沙发

2020-12-22 14:52:33

好东西笑纳了~~
回复 支持 反对

使用道具 举报

月光麦田 发表于 2020-12-24 12:25:23

月光麦田 板凳

2020-12-24 12:25:23

适合多成年人看嘛?
回复 支持 反对

使用道具 举报

cacahaha 发表于 2020-12-24 13:21:35

cacahaha 地板

2020-12-24 13:21:35

好东西,必须收藏啊
回复 支持 反对

使用道具 举报

zhan198239 发表于 2020-12-26 11:05:08

zhan198239 5#

2020-12-26 11:05:08

好东西笑纳了~~
回复 支持 反对

使用道具 举报

   发表回复

您需要登录后才可以回帖 登录 | 立即注册

返回列表 本版积分规则

:
白银玩家
:
未填写

主题

帖子

积分949

图文推荐

  • 《比利林恩的中场战事》为数不多的原生60帧

    听说原片是120帧的,怀着很期待的心情看的一脸

  • 《The Lord of the Rings 魔戒》全新影集故

    Amazon早在多年前便宣布耗资 2亿5千万美元买下

  • 即将发布:核子航母遇险记4K UHD杜比视界蓝

    最新消息:1980年美国科幻冒险战争片《核子航母遇

  • 4K电影下载软件:uTorrent Pro高级破解版wi

    Mac/苹果电脑 μTorrent for Mac 3.3.2.30180 已

  • 个人的经验心得(一):媒体文件的储存

    论坛上的爱好者好多,很喜欢和大家交流一下经验,

  • 在线客服

  • 返回顶部